<?xml version="1.0" standalone="no"?>
<!DOCTYPE svg PUBLIC "-//W3C//DTD SVG 1.1//EN" "http://www.w3.org/Graphics/SVG/1.1/DTD/svg11.dtd" >
<svg xmlns="http://www.w3.org/2000/svg">
<metadata>
<json>
<![CDATA[
{
	"fontFamily": "Phosphor",
	"majorVersion": 1,
	"minorVersion": 1,
	"fontURL": "https://phosphoricons.com",
	"description": "A flexible icon family for everyone\nFont generated by IcoMoon.",
	"copyright": "Phosphor Icons",
	"designer": "Tobias Fried & Helena Zhang",
	"designerURL": "https://phosphoricons.com",
	"license": "MIT",
	"licenseURL": "https://raw.githubusercontent.com/phosphor-icons/phosphor-web/master/LICENSE",
	"version": "Version 1.1",
	"fontId": "Phosphor",
	"psName": "Phosphor",
	"subFamily": "Regular",
	"fullName": "Phosphor"
}
]]>
</json>
</metadata>
<defs>
<font id="Phosphor" horiz-adv-x="1024">
<font-face units-per-em="1024" ascent="1024" descent="0" />
<missing-glyph horiz-adv-x="1024" />
<glyph unicode="&#x20;" horiz-adv-x="512" d="" />
<glyph unicode="&#x21;" glyph-name="exclam" data-tags="exclam" d="M265.216 952.32h84.992v-355.328l-17.408-180.224h-50.176l-17.408 180.224v355.328zM247.808 282.624q0 27.648 15.872 43.52t42.496 15.872q27.648 0 44.032-15.872t16.384-43.52q0-26.624-16.384-43.008t-44.032-16.384q-26.624 0-42.496 16.384t-15.872 43.008z" />
<glyph unicode="&#x22;" glyph-name="quotedbl" data-tags="quotedbl" d="M367.616 952.32h90.112l-31.744-310.272h-58.368v310.272zM155.648 952.32h90.112l-31.744-310.272h-58.368v310.272z" />
<glyph unicode="&#x23;" glyph-name="numbersign" data-tags="numbersign" d="M350.208 465.92h-148.48l-39.936-171.008h-70.656l39.936 171.008h-100.352l14.336 65.536h101.376l31.744 134.144h-96.256l14.336 65.536h97.28l38.912 161.792h70.656l-38.912-161.792h148.48l38.912 161.792h70.656l-38.912-161.792h99.328l-16.384-65.536h-98.304l-31.744-134.144h95.232l-16.384-65.536h-94.208l-39.936-171.008h-70.656zM217.088 531.456h148.48l31.744 134.144h-148.48z" />
<glyph unicode="&#x24;" glyph-name="dollar" data-tags="dollar" d="M269.312 223.232q-56.32 1.024-99.84 9.728t-70.144 23.040l27.648 74.752q20.48-12.288 55.808-22.016t86.528-11.776v276.48q-30.72 15.36-60.928 32.768t-53.76 41.472-37.888 56.832-14.336 77.824q0 73.728 41.472 120.832t125.44 58.368v93.184h69.632v-90.112q52.224-2.048 85.504-9.728t59.904-19.968l-24.576-71.68q-20.48 10.24-49.152 17.92t-71.68 9.728v-252.928q31.744-16.384 63.488-35.328t56.832-43.52 40.448-57.344 15.36-76.8q0-79.872-44.544-131.584t-131.584-66.048v-94.208h-69.632v90.112zM430.080 417.792q0 24.576-8.704 44.032t-23.040 34.816-33.792 27.648-41.984 23.552v-248.832q47.104 8.192 77.312 36.864t30.208 81.92zM187.392 787.456q0-44.032 28.16-71.68t70.144-50.176v224.256q-54.272-6.144-76.288-35.84t-22.016-66.56z" />
<glyph unicode="&#x25;" glyph-name="percent1" data-tags="percent" d="M28.672 790.528q0 48.128 11.776 81.408t30.208 53.76 41.984 29.696 47.104 9.216 47.104-8.192 41.984-28.16 30.208-53.248 11.776-84.48q0-50.176-11.776-83.456t-30.208-53.248-41.984-28.16-47.104-8.192-47.104 8.192-41.984 28.16-30.208 53.248-11.776 83.456zM100.352 790.528q0-60.416 18.944-84.48t40.448-24.064q11.264 0 22.016 4.608t18.944 16.896 13.312 33.28 5.12 53.76q0 31.744-5.12 52.736t-13.312 33.792-18.944 17.92-22.016 5.12q-23.552 0-41.472-24.064t-17.92-85.504zM322.56 408.576q0 48.128 11.776 81.408t30.208 53.76 41.984 29.696 47.104 9.216 47.104-8.192 41.984-28.16 30.208-53.248 11.776-84.48q0-50.176-11.776-83.456t-30.208-53.248-41.984-28.16-47.104-8.192-47.104 8.192-41.984 28.16-30.208 53.248-11.776 83.456zM394.24 408.576q0-60.416 18.944-84.48t40.448-24.064q11.264 0 22.016 4.096t18.944 15.872 13.312 33.28 5.12 55.296q0 31.744-5.12 52.736t-13.312 33.792-18.944 17.92-22.016 5.12-22.016-5.12-18.944-17.408-13.312-33.28-5.12-53.76zM452.608 970.752l58.368-29.696-356.352-719.872-58.368 26.624z" />
<glyph unicode="&#x26;" glyph-name="ampersand" data-tags="ampersand" d="M30.72 447.488q0 67.584 37.888 129.024t105.472 103.424q-24.576 36.864-42.496 73.728t-17.92 79.872q0 24.576 8.192 48.128t26.112 41.984 46.080 29.696 68.096 11.264q41.984 0 70.656-10.752t46.080-28.16 25.088-38.912 7.68-44.032q0-43.008-33.28-88.576t-104.96-87.552q16.384-29.696 38.4-60.928t46.592-61.952 50.176-60.928 51.2-55.808q11.264 16.384 19.968 39.936t14.336 49.152 8.192 51.2 2.56 47.104h72.704q-3.072-64.512-20.48-128.512t-51.2-108.032q14.336-17.408 32.768-34.304t44.032-33.28v-87.040q-54.272 26.624-123.904 95.232-18.432-18.432-37.376-35.328t-42.496-30.208-53.76-21.504-70.144-8.192q-41.984 0-81.92 13.824t-71.68 41.472-51.2 69.632-19.456 99.328zM410.624 369.664q-29.696 29.696-58.368 64.512t-54.784 69.632-48.128 67.072-37.376 56.832q-55.296-41.984-77.312-84.992t-22.016-92.16q0-39.936 14.848-69.12t37.376-48.64 49.664-28.672 52.736-9.216q51.2 0 85.504 23.040t57.856 51.712zM193.536 833.536q0-30.72 12.8-60.928t33.28-59.904q54.272 34.816 75.264 63.488t20.992 50.176q0 32.768-15.872 53.248t-54.784 20.48q-36.864 0-54.272-18.432t-17.408-48.128z" />
<glyph unicode="&#x27;" glyph-name="quotesingle" data-tags="quotesingle" d="M267.264 952.32h90.112l-31.744-310.272h-58.368v310.272z" />
<glyph unicode="&#x28;" glyph-name="parenleft" data-tags="parenleft" d="M442.368 18.432q-68.608 17.408-128.512 51.712t-104.448 89.6-70.656 135.168-26.112 189.44q0 108.544 26.624 189.952t71.68 138.24 104.96 91.136 126.464 48.64l25.6-64.512q-60.416-17.408-110.592-45.568t-86.528-74.752-56.32-115.712-19.968-167.424q0-99.328 24.064-169.472t63.488-116.736 88.064-72.704 97.792-36.352z" />
<glyph unicode="&#x29;" glyph-name="parenright" data-tags="parenright" d="M146.432 89.088q49.152 10.24 97.792 36.352t88.064 72.704 63.488 116.736 24.064 169.472q0 98.304-19.968 167.424t-56.32 115.712-86.528 74.752-110.592 45.568l25.6 64.512q66.56-14.336 126.464-48.64t104.96-91.136 71.68-138.24 26.624-189.952q0-109.568-26.112-189.44t-70.656-135.168-104.448-89.6-128.512-51.712z" />
<glyph unicode="&#x2a;" glyph-name="asterisk1" data-tags="asterisk" d="M218.112 966.656l91.136-179.2 88.064 180.224 70.656-37.888-123.904-173.056 207.872 15.36v-82.944l-201.728 16.384 118.784-164.864-68.608-39.936-95.232 183.296-90.112-183.296-73.728 39.936 123.904 164.864-202.752-16.384v82.944l202.752-17.408-117.76 172.032z" />
<glyph unicode="&#x2b;" glyph-name="plus1" data-tags="plus" d="M49.152 618.496h221.184v226.304h73.728v-226.304h221.184v-73.728h-221.184v-226.304h-73.728v226.304h-221.184v73.728z" />
<glyph unicode="&#x2c;" glyph-name="comma" data-tags="comma" d="M234.496 291.84q0 30.72 19.968 49.664t51.712 18.944q38.912 0 60.416-27.136t21.504-76.288q0-39.936-13.312-70.144t-33.28-51.2-43.008-33.792-42.496-18.944l-25.6 39.936q36.864 14.336 63.488 40.96t26.624 64.512q-14.336-3.072-22.528-3.072-29.696 0-46.592 16.896t-16.896 49.664z" />
<glyph unicode="&#x2d;" glyph-name="hyphen" data-tags="hyphen" d="M132.096 568.32h350.208v-75.776h-350.208v75.776z" />
<glyph unicode="&#x2e;" glyph-name="period" data-tags="period" d="M238.592 291.84q0 32.768 18.432 50.688t49.152 17.92q32.768 0 51.2-17.92t18.432-50.688q0-29.696-18.432-49.152t-51.2-19.456q-30.72 0-49.152 19.456t-18.432 49.152z" />
<glyph unicode="&#x2f;" glyph-name="slash" data-tags="slash" d="M461.824 964.608l64.512-28.672-373.76-843.776-64.512 28.672z" />
<glyph unicode="&#x30;" glyph-name="zero" data-tags="zero" d="M56.32 593.92q0 87.040 15.36 156.16t46.080 116.736 77.824 72.704 111.616 25.088q68.608 0 116.224-24.576t77.312-71.68 43.008-116.224 13.312-158.208q0-87.040-15.36-156.16t-46.080-116.736-77.824-72.704-111.616-25.088q-67.584 0-115.2 27.136t-77.824 76.288-43.52 117.248-13.312 150.016zM473.088 593.92q0 54.272-6.144 103.424l-304.128-277.504q17.408-58.368 52.224-93.184t91.136-34.816q90.112 0 128.512 74.752t38.4 227.328zM141.312 593.92q0-25.6 1.536-49.152t3.584-46.080l305.152 276.48q-17.408 55.296-51.712 88.064t-92.672 32.768q-91.136 0-128.512-75.264t-37.376-226.816z" />
<glyph unicode="&#x31;" glyph-name="one" data-tags="one" d="M130.048 309.248h160.768v538.624l-163.84-114.688-39.936 58.368 225.28 160.768h57.344v-643.072h157.696v-73.728h-397.312v73.728z" />
<glyph unicode="&#x32;" glyph-name="two" data-tags="two" d="M512 771.072q0-94.208-89.088-209.92t-248.832-251.904h360.448v-73.728h-454.656v73.728q19.456 18.432 53.248 48.128t72.704 66.048 79.36 78.336 73.216 86.016 53.248 88.064 20.48 84.992q0 61.44-32.256 96.768t-96.768 35.328q-55.296 0-93.184-12.288t-68.608-35.84l-34.816 56.32q46.080 32.768 97.792 48.128t113.152 15.36q96.256 0 145.408-52.224t49.152-141.312z" />
<glyph unicode="&#x33;" glyph-name="three" data-tags="three" d="M253.952 293.888q40.96 0 75.264 10.752t59.904 30.208 39.936 47.104 14.336 61.44q0 70.656-49.664 100.864t-133.632 30.208h-65.536v49.152l201.728 254.976h-306.176v73.728h404.48v-73.728l-201.728-236.544h16.384q47.104 0 86.016-13.312t67.584-37.888 44.544-59.392 15.872-78.848q0-55.296-21.504-98.304t-58.368-72.192-86.528-44.032-105.984-14.848q-52.224 0-90.624 7.68t-70.144 18.944l20.48 71.68q26.624-12.288 62.464-19.968t80.896-7.68z" />
<glyph unicode="&#x34;" glyph-name="four" data-tags="four" d="M593.92 458.752h-138.24v-223.232h-79.872v223.232h-330.752v59.392l343.040 434.176h67.584v-425.984h138.24v-67.584zM375.808 824.32l-236.544-297.984h236.544v297.984z" />
<glyph unicode="&#x35;" glyph-name="five" data-tags="five" d="M262.144 294.912q38.912 0 71.68 9.728t55.808 29.696 35.84 49.664 12.8 69.632q0 73.728-52.736 112.128t-143.872 38.4l-96.256-5.12v353.28h351.232v-73.728h-274.432v-207.872l51.2 2.048q113.664 0 179.2-55.296t65.536-157.696q0-57.344-19.968-101.376t-54.784-74.24-82.432-45.568-103.936-15.36q-30.72 0-58.368 4.608t-50.176 11.264-39.424 14.336-24.064 13.824l32.768 66.56q17.408-10.24 53.248-24.576t91.136-14.336z" />
<glyph unicode="&#x36;" glyph-name="six" data-tags="six" d="M551.936 451.584q0-44.032-15.872-84.992t-46.592-72.704-75.776-51.2-104.448-19.456q-55.296 0-100.352 17.408t-77.824 49.664-50.688 79.36-17.92 105.472q0 96.256 28.16 182.272t78.848 151.552 120.832 106.496 154.112 49.152l14.336-65.536q-64.512-8.192-118.272-37.888t-93.696-73.728-65.024-97.28-32.256-108.544q8.192 13.312 24.064 27.648t37.888 25.088 49.152 17.92 58.88 7.168q54.272 0 97.28-14.848t73.216-41.984 46.080-65.536 15.872-85.504zM467.968 443.392q0 71.68-39.936 109.568t-122.88 37.888q-29.696 0-55.296-7.168t-46.080-18.944-35.84-27.136-23.552-30.72q-2.048-14.336-2.048-22.528v-19.456q0-30.72 10.24-61.952t31.232-55.808 52.736-39.936 74.752-15.36q34.816 0 63.488 12.288t49.664 32.768 32.256 48.128 11.264 58.368z" />
<glyph unicode="&#x37;" glyph-name="seven" data-tags="seven" d="M126.976 235.52l313.344 643.072h-369.664v73.728h452.608v-66.56l-312.32-650.24h-83.968z" />
<glyph unicode="&#x38;" glyph-name="eight" data-tags="eight" d="M76.8 409.6q0 123.904 150.528 199.68-28.672 15.36-53.248 31.744t-42.496 36.864-28.16 47.104-10.24 61.44q0 37.888 15.36 70.656t44.032 56.32 69.632 37.376 91.136 13.824q47.104 0 85.504-12.288t65.536-34.304 41.472-51.712 14.336-63.488q0-58.368-29.184-107.008t-93.696-88.576q29.696-15.36 55.296-32.768t44.544-38.912 29.696-48.64 10.752-61.952q0-43.008-15.36-80.384t-45.568-64-74.24-41.984-102.4-15.36q-54.272 0-96.256 15.36t-70.144 40.96-42.496 59.392-14.336 70.656zM456.704 419.84q0 29.696-13.824 52.736t-36.864 41.472-52.736 33.792-61.44 30.72q-73.728-35.84-104.96-78.848t-31.232-80.896q0-25.6 9.728-48.64t28.672-40.448 47.104-27.648 65.024-10.24q29.696 0 56.832 8.192t48.128 24.064 33.28 39.936 12.288 55.808zM173.056 789.504q0-28.672 13.312-51.2t35.328-40.448 50.688-32.768 60.416-29.184q54.272 35.84 81.408 71.68t27.136 78.848q0 25.6-10.752 45.568t-28.672 34.304-41.472 22.016-49.152 7.68q-32.768 0-58.368-9.216t-43.008-24.576-27.136-34.304-9.728-38.4z" />
<glyph unicode="&#x39;" glyph-name="nine" data-tags="nine" d="M62.464 736.256q0 47.104 15.36 88.576t46.592 72.704 77.312 49.152 107.52 17.92q57.344 0 102.4-18.432t76.288-51.712 47.616-80.896 16.384-105.984q0-114.688-28.672-201.728t-79.872-147.456-121.344-94.208-152.064-40.96l-15.36 64.512q67.584 7.168 120.832 32.768t92.16 65.536 63.488 92.16 33.792 111.616q-16.384-17.408-33.28-29.184t-37.376-18.944-45.056-10.24-56.32-3.072q-47.104 0-89.088 14.336t-73.216 41.472-49.664 65.536-18.432 86.528zM146.432 744.448q0-73.728 44.544-110.592t118.272-36.864q58.368 0 100.864 17.92t59.904 44.544q2.048 14.336 2.048 23.040v19.968q0 35.84-9.728 70.656t-30.208 62.464-52.736 44.544-77.312 16.896q-73.728 0-114.688-39.936t-40.96-112.64z" />
<glyph unicode="&#x3a;" glyph-name="colon" data-tags="colon" d="M238.592 694.272q0 32.768 18.432 50.688t49.152 17.92q32.768 0 51.2-17.92t18.432-50.688q0-29.696-18.432-49.152t-51.2-19.456q-30.72 0-49.152 19.456t-18.432 49.152zM238.592 291.84q0 32.768 18.432 50.688t49.152 17.92q32.768 0 51.2-17.92t18.432-50.688q0-29.696-18.432-49.152t-51.2-19.456q-30.72 0-49.152 19.456t-18.432 49.152z" />
<glyph unicode="&#x3b;" glyph-name="semicolon" data-tags="semicolon" d="M234.496 291.84q0 30.72 19.968 49.664t51.712 18.944q38.912 0 60.416-27.136t21.504-76.288q0-39.936-13.312-70.144t-33.28-51.2-43.008-33.792-42.496-18.944l-25.6 39.936q36.864 14.336 63.488 40.96t26.624 64.512q-14.336-3.072-22.528-3.072-29.696 0-46.592 16.896t-16.896 49.664zM243.712 694.272q0 32.768 18.432 50.688t49.152 17.92q32.768 0 51.2-17.92t18.432-50.688q0-29.696-18.432-49.152t-51.2-19.456q-30.72 0-49.152 19.456t-18.432 49.152z" />
<glyph unicode="&#x3c;" glyph-name="less" data-tags="less" d="M46.080 547.84v29.696l482.304 293.888 38.912-63.488-406.528-240.64 407.552-236.544-38.912-61.44z" />
<glyph unicode="&#x3d;" glyph-name="equal" data-tags="equal" d="M69.632 703.488h475.136v-73.728h-475.136v73.728zM69.632 534.528h475.136v-73.728h-475.136v73.728z" />
<glyph unicode="&#x3e;" glyph-name="greater" data-tags="greater" d="M84.992 269.312l-38.912 61.44 407.552 236.544-406.528 240.64 38.912 63.488 482.304-293.888v-29.696z" />
<glyph unicode="&#x3f;" glyph-name="question1" data-tags="question" d="M237.568 416.768q-1.024 5.12-1.024 11.264v11.264q0 43.008 15.872 73.728t39.424 54.784 50.688 43.52 50.688 41.472 39.424 48.64 15.872 63.488q0 19.456-9.216 41.984t-28.16 41.984-49.152 31.744-72.192 12.288q-33.792 0-60.928-8.192t-49.152-20.48-39.936-27.136-32.256-28.16l-52.224 47.104q43.008 54.272 111.104 81.408t156.16 27.136q53.248 0 93.184-17.408t66.048-44.544 38.912-60.416 12.8-65.024q0-49.152-16.896-82.432t-42.496-59.392-54.784-47.104-54.784-45.056-42.496-53.76-16.896-72.704h-67.584zM217.088 282.624q0 27.648 15.872 43.52t42.496 15.872q27.648 0 44.032-15.872t16.384-43.52q0-26.624-16.384-43.008t-44.032-16.384q-26.624 0-42.496 16.384t-15.872 43.008z" />
<glyph unicode="&#x40;" glyph-name="at1" data-tags="at" d="M539.648 570.368q0-38.912-2.048-82.944t-3.072-88.064q0-51.2 6.144-97.28h68.608v-66.56h-136.192l-9.216 76.8h-5.12q-6.144-9.216-15.36-23.552t-25.088-28.16-41.472-24.064-64.512-10.24q-32.768 0-60.928 10.24t-48.64 29.184-32.256 45.568-11.776 60.416q0 52.224 22.528 87.040t62.464 53.248 94.72 21.504 119.296-8.192q3.072 51.2-1.024 88.576t-18.432 61.44-40.448 35.84-67.072 11.776q-43.008 0-85.504-21.504t-75.264-62.976-53.248-101.376-20.48-135.68q0-80.896 22.016-140.288t58.88-98.304 85.504-57.856 102.912-18.944q22.528 0 48.64 5.632t51.2 15.872 47.104 25.088 38.4 33.28l41.984-54.272q-43.008-46.080-103.936-70.144t-131.584-24.064q-59.392 0-118.784 19.968t-107.52 64.512-78.336 116.736-30.208 176.64q0 101.376 28.672 175.616t74.752 123.392 104.448 73.216 117.76 24.064q53.248 0 90.112-13.312t59.392-40.448 32.256-68.608 9.728-98.816zM332.8 294.912q28.672 0 50.176 9.216t35.84 23.552 23.552 31.232 15.36 32.256v71.68q-48.128 9.216-87.552 9.216t-68.096-9.728-44.032-30.208-15.36-53.248q0-33.792 22.016-58.88t68.096-25.088z" />
<glyph unicode="&#x41;" glyph-name="A" data-tags="A" d="M441.344 434.176h-275.456l-65.536-198.656h-83.968l239.616 716.8h100.352l241.664-716.8h-89.088zM192.512 507.904h225.28l-105.472 336.896h-12.288z" />
<glyph unicode="&#x42;" glyph-name="B" data-tags="B" d="M534.528 788.48q0-25.6-8.192-52.224t-24.576-49.664-41.984-40.448-60.416-26.624v-4.096q30.72-5.12 58.88-17.408t49.664-33.792 34.816-52.224 13.312-72.704q0-55.296-23.040-95.744t-60.416-66.048-85.504-37.888-98.304-12.288h-40.96t-49.152 1.536-51.2 4.096-45.056 7.68v705.536q37.888 6.144 88.064 10.24t109.568 4.096q39.936 0 81.408-6.656t75.264-25.6 55.808-52.736 22.016-87.040zM296.96 301.056q32.768 0 63.488 8.192t54.272 24.576 37.376 40.96 13.824 58.368q0 41.984-16.896 67.584t-44.032 39.936-60.928 19.456-67.584 5.12h-89.088v-257.024q7.168-2.048 20.48-3.072t28.672-2.048 31.744-1.536 28.672-0.512zM240.64 636.928q17.408 0 41.984 1.024t40.96 3.072q24.576 8.192 46.080 19.968t38.4 28.16 26.624 36.864 9.728 45.056q0 33.792-12.8 56.32t-34.304 35.84-49.152 18.432-56.32 5.12q-33.792 0-61.952-1.536t-42.496-4.608v-243.712h53.248z" />
<glyph unicode="&#x43;" glyph-name="C" data-tags="C" d="M468.992 874.496q-17.408 7.168-38.4 10.752t-50.688 3.584q-41.984 0-82.432-15.36t-71.68-50.176-50.176-91.136-18.944-138.24q0-73.728 16.896-129.024t47.104-92.16 72.704-55.296 94.72-18.432q26.624 0 49.664 4.608t42.496 12.8v102.4h75.776v-138.24l1.024-2.048q-30.72-23.552-77.824-39.424t-114.688-15.872q-64.512 0-119.296 22.016t-94.72 67.072-61.952 115.2-22.016 166.4q0 100.352 24.576 170.496t66.56 114.688 97.792 65.024 119.296 20.48q34.816 0 60.416-2.56t45.056-7.168 34.304-11.776 29.184-16.384h1.024v-161.792h-75.776v109.568z" />
<glyph unicode="&#x44;" glyph-name="D" data-tags="D" d="M81.92 952.32q38.912 5.12 81.408 6.656t72.192 1.536q93.184 0 156.16-26.624t101.376-74.24 55.296-114.176 16.896-146.432q0-72.704-15.36-139.776t-53.248-118.784-101.888-82.944-160.256-31.232q-13.312 0-34.816 0.512t-44.032 2.048-43.008 2.56-30.72 3.072v717.824zM239.616 884.736q-14.336 0-36.352-1.024t-36.352-4.096v-573.44q5.12-1.024 14.848-1.536t19.968-1.024 19.968-1.024 15.872-0.512q74.752 0 121.344 24.576t72.192 66.048 34.816 95.232 9.216 111.104q0 50.176-8.192 100.864t-33.28 91.648-71.68 67.072-122.368 26.112z" />
<glyph unicode="&#x45;" glyph-name="E" data-tags="E" d="M109.568 952.32h420.864v-75.776h-335.872v-234.496h310.272v-75.776h-310.272v-254.976h340.992v-75.776h-425.984v716.8z" />
<glyph unicode="&#x46;" glyph-name="F" data-tags="F" d="M119.808 952.32h410.624v-75.776h-325.632v-244.736h305.152v-75.776h-305.152v-320.512h-84.992v716.8z" />
<glyph unicode="&#x47;" glyph-name="G" data-tags="G" d="M447.488 881.664q-34.816 7.168-84.992 7.168-43.008 0-82.432-14.848t-69.632-49.664-48.128-91.136-17.92-139.264q0-151.552 55.808-223.232t161.28-71.68q65.536 0 111.616 25.6v199.68h-147.456v68.608h220.16v-315.392q-16.384-12.288-39.424-22.528t-49.152-17.408-54.272-10.752-54.784-3.584q-68.608 0-122.88 22.016t-92.16 67.584-58.368 115.712-20.48 165.376q0 99.328 25.6 169.984t67.584 115.2 96.256 65.024 111.616 20.48q61.44 0 101.376-6.656t67.584-17.92l-1.024-4.096v-171.008h-75.776v116.736z" />
<glyph unicode="&#x48;" glyph-name="H" data-tags="H" d="M467.968 564.224h-321.536v-328.704h-84.992v716.8h84.992v-312.32h321.536v312.32h84.992v-716.8h-84.992v328.704z" />
<glyph unicode="&#x49;" glyph-name="I" data-tags="I" d="M61.44 952.32h491.52v-75.776h-203.776v-565.248h203.776v-75.776h-491.52v75.776h202.752v565.248h-202.752v75.776z" />
<glyph unicode="&#x4a;" glyph-name="J" data-tags="J" d="M99.328 952.32h405.504v-462.848q0-129.024-61.44-196.608t-177.152-67.584q-29.696 0-58.368 5.12t-53.248 13.824-42.496 18.944-26.112 19.456l36.864 67.584q11.264-7.168 25.088-15.36t30.72-15.872 37.888-12.8 47.616-5.12q76.8 0 116.224 48.128t39.424 155.648v371.712h-320.512v75.776z" />
<glyph unicode="&#x4b;" glyph-name="K" data-tags="K" d="M250.88 567.296h-78.848v-331.776h-84.992v716.8h84.992v-319.488h76.8l230.4 319.488h98.304l-252.928-340.992 284.672-375.808h-107.52z" />
<glyph unicode="&#x4c;" glyph-name="L" data-tags="L" d="M92.16 952.32h84.992v-641.024h289.792v178.176h75.776v-253.952h-450.56v716.8z" />
<glyph unicode="&#x4d;" glyph-name="M" data-tags="M" d="M467.968 711.68l10.24 97.28h-5.12l-49.152-88.064-104.448-175.104h-25.6l-109.568 176.128-47.104 87.040h-5.12l12.288-96.256v-477.184h-82.944v716.8h78.848l169.984-272.384h2.048l163.84 272.384h76.8v-716.8h-84.992v476.16z" />
<glyph unicode="&#x4e;" glyph-name="N" data-tags="N" d="M200.704 684.032l-55.296 103.424h-4.096l10.24-103.424v-448.512h-79.872v716.8h55.296l288.768-446.464 53.248-98.304h5.12l-11.264 98.304v446.464h79.872v-716.8h-55.296z" />
<glyph unicode="&#x4f;" glyph-name="O" data-tags="O" d="M49.152 593.92q0 178.176 62.976 274.432t194.048 96.256q71.68 0 121.344-26.624t80.384-75.264 44.032-116.736 13.312-152.064q0-178.176-62.976-274.432t-196.096-96.256q-70.656 0-119.808 26.624t-79.872 75.264-44.032 116.736-13.312 152.064zM139.264 593.92q0-59.392 7.68-112.64t27.136-93.696 51.2-64.512 80.896-24.064q88.064 0 128.512 71.68t40.448 223.232q0 58.368-7.68 112.128t-27.136 94.208-52.224 64.512-81.92 24.064q-87.040 0-126.976-72.192t-39.936-222.72z" />
<glyph unicode="&#x50;" glyph-name="P" data-tags="P" d="M102.4 945.152q38.912 9.216 83.968 12.288t89.088 3.072q47.104 0 95.744-9.216t88.576-33.792 65.024-67.584 25.088-109.568q0-65.536-23.552-110.592t-62.464-73.216-89.088-40.448-103.424-12.288h-16.896t-24.576 0.512-25.088 1.536-17.408 2.048v-272.384h-84.992v709.632zM277.504 886.784q-26.624 0-51.2-1.024t-38.912-5.12v-296.96q5.12-2.048 16.384-2.56t23.552-1.024 23.552-0.512h16.384q34.816 0 69.12 6.656t61.952 24.064 44.544 49.152 16.896 80.896q0 41.984-15.872 70.144t-41.984 45.056-58.88 24.064-65.536 7.168z" />
<glyph unicode="&#x51;" glyph-name="Q" data-tags="Q" d="M49.152 593.92q0 178.176 62.976 274.432t194.048 96.256q71.68 0 121.344-26.624t80.384-75.264 44.032-116.736 13.312-152.064q0-164.864-52.224-258.56t-163.84-109.056q9.216-35.84 34.304-53.76t64-17.92q44.032 0 78.848 22.528l22.528-62.464q-14.336-16.384-44.544-26.112t-62.976-9.728q-27.648 0-56.832 7.68t-54.784 25.088-44.544 45.568-25.088 70.144q-58.368 8.192-98.304 37.376t-65.024 76.8-36.352 111.616-11.264 140.8zM139.264 593.92q0-59.392 7.68-112.64t27.136-93.696 51.2-64.512 80.896-24.064q88.064 0 128.512 71.68t40.448 223.232q0 58.368-7.68 112.128t-27.136 94.208-52.224 64.512-81.92 24.064q-87.040 0-126.976-72.192t-39.936-222.72z" />
<glyph unicode="&#x52;" glyph-name="R" data-tags="R" d="M102.4 945.152q38.912 7.168 89.6 11.264t92.672 4.096q47.104 0 89.6-10.24t74.752-33.792 51.712-61.44 19.456-92.16q0-41.984-13.824-74.24t-33.792-55.296-41.472-37.376-36.864-20.48l189.44-339.968h-99.328l-168.96 315.392h-128v-315.392h-84.992v709.632zM286.72 886.784h-27.648t-27.648-1.024-25.088-2.048-18.944-3.072v-264.192h79.872q70.656 0 116.736 34.816t46.080 108.544q0 55.296-37.888 91.136t-105.472 35.84z" />
<glyph unicode="&#x53;" glyph-name="S" data-tags="S" d="M153.6 336.896q30.72-16.384 69.12-27.136t77.312-10.752q33.792 0 63.488 6.656t51.712 21.504 34.816 37.376 12.8 53.248q0 41.984-28.16 68.608t-70.144 47.104-91.136 39.936-91.136 46.080-70.144 65.024-28.16 97.792q0 41.984 16.896 75.776t47.616 57.344 74.24 36.352 96.768 12.8q61.44 0 111.616-8.704t79.872-23.040l2.048 1.024v-2.048h1.024l-1.024-3.072v-163.84h-75.776v109.568q-25.6 6.144-56.32 10.24t-65.536 4.096q-33.792 0-60.928-8.192t-46.080-22.016-29.184-32.256-10.24-38.912q0-39.936 28.16-66.56t70.144-47.616 91.136-41.472 91.136-47.616 70.144-65.024 28.16-94.208q0-46.080-16.896-82.944t-48.128-63.488-76.8-40.96-102.912-14.336q-38.912 0-73.728 6.144t-64 15.36-52.224 19.456-36.352 17.408l1.024 3.072v165.888h75.776v-113.664z" />
<glyph unicode="&#x54;" glyph-name="T" data-tags="T" d="M40.96 952.32h532.48v-187.392h-75.776v111.616h-148.48v-565.248h112.64v-75.776h-310.272v75.776h112.64v565.248h-147.456v-111.616h-75.776v187.392z" />
<glyph unicode="&#x55;" glyph-name="U" data-tags="U" d="M471.040 952.32h81.92v-478.208q0-64.512-16.896-111.616t-47.616-77.312-74.752-44.544-97.28-14.336q-126.976 0-190.976 57.344t-64 174.080v494.592h84.992v-454.656q0-54.272 10.752-91.648t31.744-60.416 53.248-33.28 75.264-10.24q82.944 0 118.272 45.568t35.328 150.016v454.656z" />
<glyph unicode="&#x56;" glyph-name="V" data-tags="V" d="M309.248 340.992h11.264l194.56 611.328h84.992l-240.64-716.8h-99.328l-245.76 716.8h93.184z" />
<glyph unicode="&#x57;" glyph-name="W" data-tags="W" d="M177.152 441.344l5.12-66.56h7.168l14.336 72.704 75.776 279.552h67.584l70.656-277.504 18.432-75.776h5.12l6.144 69.632 75.776 508.928h75.776l-110.592-716.8h-84.992l-82.944 290.816-10.24 69.632h-3.072l-11.264-70.656-82.944-289.792h-86.016l-111.616 716.8h80.896z" />
<glyph unicode="&#x58;" glyph-name="X" data-tags="X" d="M257.024 600.064l-216.064 352.256h102.4l143.36-242.688 25.6-48.128 24.576 48.128 152.576 242.688h94.208l-224.256-345.088 234.496-371.712h-99.328l-160.768 257.024-27.648 51.2-26.624-51.2-163.84-257.024h-95.232z" />
<glyph unicode="&#x59;" glyph-name="Y" data-tags="Y" d="M265.216 509.952l-256 442.368h99.328l204.8-354.304h1.024l199.68 354.304h91.136l-254.976-441.344v-275.456h-84.992v274.432z" />
<glyph unicode="&#x5a;" glyph-name="Z" data-tags="Z" d="M56.32 312.32l404.48 564.224h-404.48v75.776h501.76v-76.8l-406.528-564.224h406.528v-75.776h-501.76v76.8z" />
<glyph unicode="&#x5b;" glyph-name="bracketleft" data-tags="bracketleft" d="M152.576 952.32h349.184v-71.68h-269.312v-808.96h269.312v-71.68h-349.184v952.32z" />
<glyph unicode="&#x5c;" glyph-name="backslash" data-tags="backslash" d="M530.432 121.856l-67.584-29.696-378.88 843.776 68.608 28.672z" />
<glyph unicode="&#x5d;" glyph-name="bracketright" data-tags="bracketright" d="M461.824 0h-350.208v71.68h270.336v808.96h-270.336v71.68h350.208v-952.32z" />
<glyph unicode="&#x5e;" glyph-name="asciicircum" data-tags="asciicircum" d="M301.056 963.584h29.696l249.856-419.84h-83.968l-184.32 315.392-191.488-315.392h-84.992z" />
<glyph unicode="&#x5f;" glyph-name="underscore" data-tags="underscore" d="M57.344 97.28h499.712v-71.68h-499.712v71.68z" />
<glyph unicode="&#x60;" glyph-name="grave" data-tags="grave" d="M378.88 820.224h-56.32l-121.856 152.576h111.616z" />
<glyph unicode="&#x61;" glyph-name="a" data-tags="a" d="M110.592 707.584q44.032 25.6 99.328 36.864t108.544 11.264q52.224 0 85.504-16.384t52.224-42.496 25.6-59.392 6.656-67.072q0-38.912-2.048-82.944t-3.072-88.064q0-51.2 6.144-97.28h68.608v-66.56h-136.192l-9.216 76.8h-5.12q-6.144-9.216-18.432-23.552t-32.256-28.16-48.64-24.064-67.584-10.24q-75.776 0-119.808 38.912t-44.032 106.496q0 52.224 23.040 87.040t66.048 53.248 103.936 21.504 136.704-8.192q5.12 47.104 1.536 78.336t-16.384 49.664-35.84 26.112-56.832 7.68q-46.080 0-88.064-12.8t-74.752-26.112zM261.12 294.912q28.672 0 53.248 9.216t43.008 23.552 30.72 31.232 18.432 32.256v71.68q-53.248 9.216-98.304 9.216t-77.824-9.728-51.2-30.208-18.432-53.248q0-33.792 23.040-58.88t77.312-25.088z" />
<glyph unicode="&#x62;" glyph-name="b" data-tags="b" d="M2.048 952.32h163.84v-263.168h5.12q26.624 33.792 68.608 52.224t91.136 18.432q225.28 0 225.28-260.096 0-132.096-72.704-202.24t-206.848-70.144q-63.488 0-114.688 12.288t-74.752 28.672v615.424h-84.992v68.608zM320.512 691.2q-61.44 0-99.328-34.816t-55.296-98.304v-235.52q23.552-12.288 56.32-19.456t68.608-7.168q40.96 0 74.24 11.776t56.832 36.864 36.352 64 12.8 92.16q0 38.912-8.192 73.728t-26.112 60.928-46.592 40.96-69.632 14.848z" />
<glyph unicode="&#x63;" glyph-name="c" data-tags="c" d="M449.536 668.672q-23.552 8.192-50.688 13.824t-53.76 5.632q-100.352 0-149.504-47.104t-49.152-149.504q0-45.056 14.336-80.384t40.96-59.904 64-37.888 82.432-13.312q48.128 0 93.696 16.384t76.288 43.008l35.84-59.392q-14.336-12.288-35.84-25.6t-49.664-25.088-62.464-18.944-74.24-7.168q-66.56 0-117.248 18.944t-84.48 54.272-51.2 84.992-17.408 110.080q0 64.512 17.92 114.688t51.712 83.968 81.92 51.712 107.52 17.92q75.776 0 123.392-13.312t80.384-29.696l-1.024-3.072v-142.336h-73.728v97.28z" />
<glyph unicode="&#x64;" glyph-name="d" data-tags="d" d="M357.376 952.32h165.888v-541.696q0-9.216 1.024-23.040t2.56-29.184 3.584-30.208 4.096-26.112h68.608v-66.56h-136.192l-10.24 78.848h-4.096q-22.528-38.912-67.072-65.024t-102.912-26.112q-115.712 0-170.496 65.024t-54.784 202.24q0 64.512 18.432 114.176t52.736 82.944 82.432 50.688 107.52 17.408q21.504 0 38.4-1.024t31.232-3.072 27.136-5.632 28.16-7.68v145.408h-86.016v68.608zM295.936 291.84q62.464 0 98.304 32.256t49.152 96.768v237.568q-22.528 15.36-50.688 22.528t-74.24 7.168q-81.92 0-129.024-47.616t-47.104-150.016q0-41.984 7.68-78.336t25.6-62.976 47.616-41.984 72.704-15.36z" />
<glyph unicode="&#x65;" glyph-name="e" data-tags="e" d="M541.696 300.032q-18.432-16.384-43.52-30.72t-54.784-24.576-61.952-15.872-65.024-5.632q-61.44 0-108.544 18.944t-78.848 54.272-48.128 84.48-16.384 110.592q0 64.512 17.92 114.688t51.712 83.968 81.92 51.712 107.52 17.92q43.008 0 84.992-11.264t74.24-42.496 49.664-86.016 12.288-141.824h-396.288q0-92.16 49.664-137.728t132.608-45.568q27.648 0 54.784 6.656t51.712 15.872 43.52 20.48 29.184 20.48zM325.632 692.224q-33.792 0-64-7.168t-53.248-24.064-37.888-44.032-18.944-67.072h318.464q-5.12 67.584-43.52 104.96t-100.864 37.376z" />
<glyph unicode="&#x66;" glyph-name="f" data-tags="f" d="M90.112 235.52v68.608h121.856v374.784h-121.856v68.608h121.856v28.672q0 96.256 50.176 139.264t143.36 43.008q33.792 0 60.416-4.096t57.344-16.384l-18.432-66.56q-26.624 11.264-51.2 14.848t-45.056 3.584q-67.584 0-92.16-33.28t-24.576-109.056h211.968v-68.608h-211.968v-374.784h211.968v-68.608h-413.696z" />
<glyph unicode="&#x67;" glyph-name="g" data-tags="g" d="M536.576 209.92q0-48.128-18.432-84.48t-50.688-59.904-75.264-35.328-93.184-11.776q-60.416 0-105.472 12.288t-77.824 31.744l38.912 72.704q9.216-8.192 24.064-15.872t34.304-14.336 41.472-10.752 43.52-4.096q45.056 0 75.264 8.192t48.64 25.6 26.624 45.056 8.192 67.584v57.344h-4.096q-23.552-33.792-60.416-52.224t-95.232-18.432q-116.736 0-171.52 65.024t-54.784 202.24q0 131.072 69.632 198.144t206.848 67.072q63.488 0 108.032-8.704t81.408-22.016v-515.072zM308.224 291.84q62.464 0 98.304 32.256t50.176 98.816v242.688q-45.056 21.504-125.952 21.504-81.92 0-129.024-48.128t-47.104-147.456q0-44.032 8.192-80.384t26.112-62.976 47.104-41.472 72.192-14.848z" />
<glyph unicode="&#x68;" glyph-name="h" data-tags="h" d="M4.096 952.32h159.744v-268.288h5.12q31.744 35.84 73.728 55.808t104.448 19.968q49.152 0 85.504-10.24t59.392-35.84 34.304-70.144 11.264-113.152v-294.912h-79.872v279.552q0 44.032-5.12 76.8t-19.968 54.784-40.448 33.28-65.536 11.264q-27.648 0-54.272-9.728t-48.64-26.624-37.888-40.96-22.016-52.736v-325.632h-78.848v648.192h-80.896v68.608z" />
<glyph unicode="&#x69;" glyph-name="i" data-tags="i" d="M107.52 235.52v68.608h178.176v374.784h-178.176v68.608h260.096v-443.392h174.080v-68.608h-434.176zM258.048 892.928q0 27.648 18.432 47.616t47.104 19.968q29.696 0 49.664-19.968t19.968-47.616q0-26.624-19.968-45.056t-49.664-18.432q-28.672 0-47.104 18.432t-18.432 45.056z" />
<glyph unicode="&#x6a;" glyph-name="j" data-tags="j" d="M344.064 678.912h-247.808v68.608h329.728v-524.288q0-103.424-52.736-154.112t-145.92-50.688q-27.648 0-53.76 7.168t-48.64 16.896-39.424 19.968-25.088 16.384l33.792 66.56q27.648-20.48 62.976-35.84t73.216-15.36q61.44 0 87.552 38.4t26.112 105.984v440.32zM301.056 892.928q0 27.648 18.432 47.616t47.104 19.968q29.696 0 49.664-19.968t19.968-47.616q0-26.624-19.968-45.056t-49.664-18.432q-28.672 0-47.104 18.432t-18.432 45.056z" />
<glyph unicode="&#x6b;" glyph-name="k" data-tags="k" d="M24.576 952.32h165.888v-423.936h56.32l201.728 219.136h96.256l-226.304-242.688 186.368-200.704h66.56v-68.608h-105.472l-219.136 231.424h-56.32v-231.424h-78.848v648.192h-87.040v68.608z" />
<glyph unicode="&#x6c;" glyph-name="l" data-tags="l" d="M121.856 952.32h169.984v-544.768q0-62.464 20.992-88.064t61.952-25.6q28.672 0 54.784 10.24t57.856 34.816l36.864-56.32q-16.384-14.336-35.84-25.6t-39.936-18.944-40.96-11.776-37.888-4.096q-37.888 0-67.584 9.728t-49.664 31.232-30.208 56.832-10.24 87.552v476.16h-90.112v68.608z" />
<glyph unicode="&#x6d;" glyph-name="m" data-tags="m" d="M268.288 235.52v340.992q0 21.504-1.536 41.472t-7.168 35.84-16.384 25.088-28.16 9.216q-34.816 0-58.88-28.672t-36.352-71.68v-352.256h-77.824v512h53.248l15.36-62.464h4.096q10.24 15.36 19.968 29.184t22.528 24.064 30.208 15.872 44.032 5.632q15.36 0 31.744-4.608t30.208-14.336 24.064-26.112 13.312-39.936q23.552 39.936 52.736 62.464t80.384 22.528q33.792 0 54.784-11.264t32.768-32.256 16.384-50.176 4.608-65.024v-365.568h-77.824v348.16q0 21.504-2.048 40.448t-7.68 33.28-15.36 22.528-26.112 8.192q-35.84 0-60.416-28.672t-36.864-81.92v-342.016h-77.824z" />
<glyph unicode="&#x6e;" glyph-name="n" data-tags="n" d="M95.232 568.32q0 9.216-0.512 24.064t-1.536 30.72-2.56 31.232-3.584 26.624h-68.608v66.56h137.216l9.216-82.944h5.12q10.24 17.408 27.136 34.304t39.424 30.72 50.176 22.016 58.368 8.192q47.104 0 83.456-10.24t60.416-36.352 36.352-70.656 12.288-113.152v-293.888h-79.872v278.528q0 84.992-27.648 128t-100.352 43.008q-26.624 0-51.712-10.752t-45.568-28.16-35.84-40.448-22.528-48.64v-321.536h-78.848v332.8z" />
<glyph unicode="&#x6f;" glyph-name="o" data-tags="o" d="M58.368 491.52q0 123.904 64.512 196.096t184.32 72.192q64.512 0 111.104-20.992t77.312-56.832 45.568-84.992 14.848-105.472q0-61.44-16.384-111.104t-48.128-84.48-78.336-53.76-105.984-18.944q-63.488 0-110.592 20.992t-77.824 56.832-45.568 84.992-14.848 105.472zM143.36 491.52q0-35.84 8.704-71.68t28.16-64.512 50.688-46.080 76.288-17.408q81.92 0 123.392 50.688t41.472 148.992q0 36.864-8.704 72.192t-28.672 64-51.2 46.080-76.288 17.408q-81.92 0-122.88-50.176t-40.96-149.504z" />
<glyph unicode="&#x70;" glyph-name="p" data-tags="p" d="M98.304 568.32q0 9.216-0.512 24.064t-1.536 30.72-2.56 31.232-3.584 26.624h-68.608v66.56h136.192l10.24-71.68h5.12q27.648 35.84 70.144 59.904t103.936 24.064q109.568 0 164.864-60.416t55.296-197.632q0-64.512-18.944-116.224t-53.76-87.552-83.968-55.296-108.544-19.456q-21.504 0-38.4 1.536t-30.72 4.096-27.136 6.656-28.672 10.24v-215.040h-78.848v537.6zM333.824 685.056q-30.72 0-57.856-11.264t-48.128-29.696-34.304-40.96-16.384-45.056v-233.472q22.528-15.36 50.688-24.064t74.24-8.704q81.92 0 131.072 53.76t49.152 157.184q0 87.040-34.304 134.656t-114.176 47.616z" />
<glyph unicode="&#x71;" glyph-name="q" data-tags="q" d="M527.36 30.72h-79.872v262.144h-4.096q-23.552-33.792-60.416-51.712t-95.232-17.92q-116.736 0-171.52 65.024t-54.784 202.24q0 131.072 69.632 198.144t206.848 67.072q60.416 0 112.64-10.24t76.8-21.504v-693.248zM300.032 291.84q121.856 0 147.456 128v246.784q-22.528 11.264-53.76 15.872t-71.168 4.608q-81.92 0-129.024-47.104t-47.104-148.48q0-44.032 7.68-80.384t26.112-62.976 47.616-41.472 72.192-14.848z" />
<glyph unicode="&#x72;" glyph-name="r" data-tags="r" d="M67.584 235.52v68.608h138.24v374.784h-138.24v68.608h191.488l16.384-66.56h5.12q34.816 31.744 77.824 54.272t102.4 22.528q34.816 0 55.808-13.312t32.768-38.912 15.872-61.952 4.096-82.432l-71.68-1.024q0 65.536-12.8 96.256t-46.592 30.72q-31.744 0-57.344-9.216t-44.544-22.528-32.256-26.624-19.456-22.528v-302.080h196.608v-68.608h-413.696z" />
<glyph unicode="&#x73;" glyph-name="s" data-tags="s" d="M448.512 373.76q0 32.768-25.6 50.688t-63.488 28.672-82.432 19.968-82.432 24.576-63.488 41.472-25.6 73.216q0 38.912 16.896 66.56t44.544 45.568 64.512 26.624 76.8 8.704q71.68 0 123.392-17.92t82.432-37.376l-32.768-64.512q-33.792 18.432-73.216 35.328t-98.816 16.896q-22.528 0-44.544-4.608t-39.936-13.824-28.672-24.064-10.752-36.352q0-26.624 25.6-40.96t63.488-24.064 82.432-18.432 82.432-25.088 63.488-44.032 25.6-74.752q0-70.656-55.808-116.736t-167.424-46.080q-33.792 0-66.56 6.144t-61.44 16.384-52.224 23.040-38.912 26.112l40.96 66.56q12.288-12.288 32.768-25.088t45.056-23.040 52.736-16.384 56.832-6.144q27.648 0 51.712 4.608t42.496 14.336 29.184 25.6 10.752 38.4z" />
<glyph unicode="&#x74;" glyph-name="t" data-tags="t" d="M31.744 747.52h121.856v101.376l79.872 22.528v-123.904h273.408v-68.608h-273.408v-241.664q0-74.752 36.352-110.592t103.936-35.84q46.080 0 80.384 17.408t61.952 37.888l26.624-60.416q-35.84-28.672-85.504-46.080t-101.888-17.408q-40.96 0-77.312 11.776t-64 36.352-44.032 62.976-16.384 91.648v253.952h-121.856v68.608z" />
<glyph unicode="&#x75;" glyph-name="u" data-tags="u" d="M371.712 747.52h145.408v-349.184q0-50.176 6.144-96.256h68.608v-66.56h-136.192l-3.072 87.040h-4.096q-26.624-44.032-70.656-71.68t-106.496-27.648q-47.104 0-80.384 10.752t-54.784 37.376-31.744 71.168-10.24 111.104v225.28h-68.608v68.608h148.48v-277.504q0-41.984 3.584-75.264t14.848-56.32 33.28-34.816 58.88-11.776q53.248 0 92.672 34.816t59.904 87.040v265.216h-65.536v68.608z" />
<glyph unicode="&#x76;" glyph-name="v" data-tags="v" d="M309.248 334.848h11.264l160.768 412.672h89.088l-216.064-512h-90.112l-220.16 512h94.208z" />
<glyph unicode="&#x77;" glyph-name="w" data-tags="w" d="M347.136 634.88l102.4-284.672h7.168l72.704 397.312h74.752l-100.352-512h-91.136l-98.304 282.624h-3.072l-102.4-282.624h-91.136l-107.52 512h78.848l82.944-399.36h6.144l99.328 286.72h69.632z" />
<glyph unicode="&#x78;" glyph-name="x1" data-tags="x" d="M259.072 497.664l-197.632 249.856h102.4l147.456-192.512 151.552 192.512h92.16l-197.632-245.76 209.92-266.24h-98.304l-162.816 209.92-165.888-209.92h-93.184z" />
<glyph unicode="&#x79;" glyph-name="y" data-tags="y" d="M318.464 314.368h38.912l126.976 433.152h82.944l-142.336-459.776q-11.264-35.84-23.040-81.408t-33.28-85.504-58.368-67.584-96.256-27.648q-13.312 0-28.16 3.072t-29.184 7.68-26.624 10.752-18.432 12.288l28.672 73.728q6.144-5.12 16.896-10.24t23.552-8.704 25.088-6.144 20.48-2.56q76.8 0 104.448 130.048h-68.608l-215.040 512h92.16z" />
<glyph unicode="&#x7a;" glyph-name="z" data-tags="z" d="M86.016 304.128l347.136 374.784h-347.136v68.608h442.368v-68.608l-350.208-374.784h350.208v-68.608h-442.368v68.608z" />
<glyph unicode="&#x7b;" glyph-name="braceleft" data-tags="braceleft" d="M225.28 268.288q0 44.032-14.848 76.288t-36.864 53.76-47.104 31.744-44.544 10.24v71.68q19.456 0 44.544 8.704t47.104 28.672 36.864 51.712 14.848 78.848v104.448q0 36.864 11.776 67.584t32.768 53.248 50.176 35.328 64 12.8h148.48v-71.68h-112.64q-64.512 0-89.6-30.72t-25.088-91.136v-99.328q0-41.984-15.36-74.752t-36.864-54.784-44.032-34.816-36.864-14.848v-6.144q13.312-2.048 35.84-15.872t44.032-37.888 37.376-56.832 15.872-72.704v-98.304q0-62.464 26.624-92.16t89.088-29.696h111.616v-71.68h-148.48q-71.68 0-115.2 42.496t-43.52 125.44v100.352z" />
<glyph unicode="&#x7c;" glyph-name="bar" data-tags="bar" d="M272.384 952.32h69.632v-849.92h-69.632v849.92z" />
<glyph unicode="&#x7d;" glyph-name="braceright" data-tags="braceright" d="M389.12 167.936q0-82.944-43.52-125.44t-115.2-42.496h-148.48v71.68h111.616q62.464 0 89.088 29.696t26.624 92.16v98.304q0 39.936 15.36 72.704t36.864 56.832 44.032 37.888 36.864 15.872v6.144q-14.336 2.048-36.864 14.848t-44.032 34.816-36.864 54.784-15.36 74.752v99.328q0 60.416-25.088 91.136t-89.6 30.72h-112.64v71.68h148.48q34.816 0 64-12.8t50.176-35.328 32.768-53.248 11.776-67.584v-104.448q0-47.104 14.848-78.848t36.864-51.712 47.104-28.672 44.544-8.704v-71.68q-19.456 0-44.544-10.24t-47.104-31.744-36.864-53.76-14.848-76.288v-100.352z" />
<glyph unicode="&#x7e;" glyph-name="asciitilde" data-tags="asciitilde" d="M79.872 605.184q44.032 33.792 79.872 47.104t65.536 13.312q28.672 0 53.248-8.704t47.104-19.456 44.032-19.456 45.056-8.704q19.456 0 39.936 8.192t44.032 28.672l34.816-62.464q-38.912-26.624-70.144-37.376t-56.832-10.752q-27.648 0-50.688 8.704t-44.032 19.456-41.984 19.456-45.568 8.704q-23.552 0-50.176-10.752t-59.392-37.376z" />
<glyph unicode="&#xa1;" glyph-name="exclamdown" data-tags="exclamdown" d="M349.184 30.72h-84.992v355.328l17.408 180.224h50.176l17.408-180.224v-355.328zM247.808 699.392q0 27.648 15.872 43.52t42.496 15.872q27.648 0 44.032-15.872t16.384-43.52q0-26.624-16.384-43.008t-44.032-16.384q-26.624 0-42.496 16.384t-15.872 43.008z" />
<glyph unicode="&#xa2;" glyph-name="cent" data-tags="cent" d="M529.408 265.216q-12.288-9.216-30.72-16.384t-38.912-12.288-42.496-7.68-41.472-2.56v-93.184h-72.704v92.16q-102.4 10.24-160.256 81.408t-57.856 184.832q0 58.368 17.408 104.96t47.104 80.384 69.12 53.76 84.48 26.112v93.184h72.704v-91.136q45.056 0 83.456-11.776t60.928-23.040l-23.552-69.632q-10.24 5.12-25.088 10.752t-32.256 10.752-35.84 8.192-34.816 3.072v-392.192q16.384 0 35.84 2.56t38.912 7.168 35.328 10.752 24.064 12.288zM169.984 491.52q0-33.792 8.704-66.56t26.624-59.392 44.544-44.544 63.488-22.016v386.048q-63.488-8.192-103.424-57.344t-39.936-136.192z" />
<glyph unicode="&#xa3;" glyph-name="sterling" data-tags="sterling" d="M78.848 627.712h67.584q-12.288 27.648-20.48 58.88t-8.192 74.24q0 100.352 57.344 152.064t156.672 51.712q62.464 0 108.544-9.216t75.776-23.552l-26.624-72.704q-23.552 11.264-62.976 20.48t-95.744 9.216q-61.44 0-94.72-33.28t-33.28-89.6q0-43.008 10.24-75.264t24.576-62.976h164.864v-71.68h-134.144q8.192-23.552 13.312-49.152t5.12-56.32q0-15.36-2.048-31.744t-8.192-34.304-18.432-36.352-32.768-36.864h310.272v-75.776h-456.704v73.728q32.768 0 55.808 11.776t37.888 30.72 22.016 43.008 7.168 48.64q0 33.792-6.656 60.928t-16.896 51.712h-99.328v71.68z" />
<glyph unicode="&#xa4;" glyph-name="currency" data-tags="currency" d="M99.328 845.824l109.568-108.544q39.936 27.648 97.28 27.648 54.272 0 97.28-28.672l110.592 109.568 50.176-50.176-108.544-110.592q26.624-41.984 26.624-96.256t-26.624-96.256l108.544-110.592-50.176-49.152-108.544 107.52q-41.984-26.624-99.328-26.624-58.368 0-99.328 27.648l-107.52-108.544-50.176 49.152 107.52 109.568q-25.6 41.984-25.6 97.28 0 26.624 7.168 51.2t19.456 46.080l-108.544 109.568zM201.728 588.8q0-46.080 29.184-76.8t75.264-30.72 75.776 30.72 29.696 76.8-29.696 77.312-75.776 31.232-75.264-31.232-29.184-77.312z" />
<glyph unicode="&#xa5;" glyph-name="yen" data-tags="yen" d="M140.288 571.392h96.256l-207.872 380.928h99.328l183.296-348.16h5.12l177.152 348.16h91.136l-207.872-380.928h98.304v-61.44h-124.928v-72.704h124.928v-61.44h-124.928v-140.288h-84.992v140.288h-124.928v61.44h124.928v72.704h-124.928v61.44z" />
<glyph unicode="&#xa6;" glyph-name="brokenbar" data-tags="brokenbar" d="M272.384 446.464h69.632v-344.064h-69.632v344.064zM342.016 608.256h-69.632v344.064h69.632v-344.064z" />
<glyph unicode="&#xa7;" glyph-name="section" data-tags="section" d="M110.592 596.992q0 15.36 4.608 33.792t15.36 36.864 28.16 35.84 44.032 30.72q-20.48 14.336-37.376 36.864t-16.896 64.512q0 57.344 42.496 93.184t118.272 35.84q55.296 0 93.696-9.216t66.048-22.528l-19.456-68.608q-24.576 11.264-58.368 19.968t-70.656 8.704q-46.080 0-68.096-16.384t-22.016-44.032q0-26.624 19.968-41.472t50.688-26.112 65.536-22.528 65.536-29.184 50.688-47.104 19.968-75.264q0-31.744-18.432-69.12t-73.728-68.096q27.648-16.384 40.96-37.888t13.312-63.488q0-31.744-12.288-55.808t-34.304-40.448-51.712-24.576-63.488-8.192q-57.344 0-94.208 9.728t-65.536 24.064l20.48 66.56q23.552-11.264 56.832-19.968t72.192-8.704q43.008 0 66.56 13.824t23.552 46.592q0 26.624-19.968 41.984t-50.688 26.624-65.536 22.528-65.536 29.184-50.688 46.592-19.968 74.752zM420.864 588.8q0 25.6-13.312 41.984t-35.328 28.16-49.664 20.48-55.296 18.944q-29.696-13.312-52.224-37.888t-22.528-61.44q0-25.6 13.312-41.984t34.304-28.16 48.128-19.968 54.784-18.432q14.336 6.144 28.16 16.384t25.088 23.040 17.92 27.648 6.656 31.232z" />
<glyph unicode="&#xa8;" glyph-name="dieresis" data-tags="dieresis" d="M134.144 896q0 26.624 15.872 43.52t42.496 16.896q25.6 0 41.984-16.896t16.384-43.52q0-24.576-16.384-41.472t-41.984-16.896q-26.624 0-42.496 16.896t-15.872 41.472zM362.496 896q0 26.624 15.872 43.52t41.472 16.896q26.624 0 43.52-16.896t16.896-43.52q0-24.576-16.896-41.472t-43.52-16.896q-25.6 0-41.472 16.896t-15.872 41.472z" />
<glyph unicode="&#xa9;" glyph-name="copyright1" data-tags="copyright" d="M44.032 537.6q0 61.44 20.992 110.080t56.832 82.432 83.456 51.712 101.888 17.92q53.248 0 101.376-17.92t83.456-51.712 56.32-82.432 20.992-110.080-20.992-110.080-56.32-82.432-83.456-51.712-101.376-17.92q-60.416 0-108.544 17.92t-82.944 51.712-53.248 82.432-18.432 110.080zM98.304 537.6q0-51.2 15.872-91.136t44.032-67.072 66.56-40.96 82.432-13.824 81.92 13.824 66.048 40.96 44.032 67.072 15.872 91.136-15.872 90.624-44.032 66.56-66.048 41.472-81.92 14.336-82.432-14.336-66.56-41.472-44.032-66.56-15.872-90.624zM395.264 416.768q-34.816-20.48-88.064-20.48-60.416 0-92.16 37.888t-31.744 103.424q0 67.584 33.792 104.448t90.112 36.864q26.624 0 43.52-5.12t39.424-15.36l-19.456-52.224q-33.792 15.36-56.32 15.36-64.512 0-64.512-83.968 0-43.008 18.944-63.488t51.712-20.48q18.432 0 32.768 3.584t26.624 10.752z" />
<glyph unicode="&#xaa;" glyph-name="ordfeminine" data-tags="ordfeminine" d="M179.2 928.768q25.6 13.312 67.584 22.528t93.184 9.216q63.488 0 87.040-26.624t23.552-76.8q0-38.912-1.536-74.752t-1.536-68.608q0-24.576 1.536-47.104t6.656-41.984h-56.32l-13.312 47.104h-4.096q-13.312-17.408-37.888-34.304t-68.608-16.896q-53.248 0-84.992 26.112t-31.744 71.168q0 31.744 15.36 53.248t41.472 34.816 61.44 19.456 76.288 6.144q7.168 0 13.824-0.512t13.824-0.512q1.024 6.144 1.024 11.776v10.752q0 27.648-12.288 38.912t-47.104 11.264q-40.96 0-74.752-7.68t-53.248-17.92zM286.72 677.888q21.504 0 37.376 5.12t27.136 13.824 18.432 18.432 11.264 18.944v43.008q-11.264 1.024-21.504 1.024h-21.504q-21.504 0-40.96-2.048t-34.304-8.192-23.552-16.896-8.704-28.16q0-20.48 14.848-32.768t41.472-12.288z" />
<glyph unicode="&#xab;" glyph-name="guillemotleft" data-tags="guillemotleft" d="M51.2 505.856l199.68 260.096 59.392-49.152-159.744-206.848 166.912-203.776-58.368-50.176zM296.96 505.856l199.68 260.096 59.392-49.152-159.744-206.848 166.912-203.776-58.368-50.176z" />
<glyph unicode="&#xac;" glyph-name="logicalnot" data-tags="logicalnot" d="M90.112 636.928h434.176v-196.608h-73.728v122.88h-360.448v73.728z" />
<glyph unicode="&#xad;" glyph-name="uni00AD" data-tags="uni00AD" d="M132.096 568.32h350.208v-75.776h-350.208v75.776z" />
<glyph unicode="&#xae;" glyph-name="registered" data-tags="registered" d="M35.84 697.344q0 65.536 21.504 116.224t58.88 84.992 86.528 52.224 104.448 17.92q56.32 0 105.984-17.92t86.528-52.224 57.856-84.992 20.992-116.224-21.504-116.224-58.88-84.992-86.528-52.224-104.448-17.92q-57.344 0-106.496 17.92t-86.016 52.224-57.856 84.992-20.992 116.224zM100.352 697.344q0-53.248 16.384-92.672t44.544-65.536 66.048-39.424 79.872-13.312q44.032 0 81.92 12.8t65.536 38.912 43.52 65.536 15.872 93.696q0 53.248-16.384 92.672t-44.544 65.536-65.536 39.424-80.384 13.312q-45.056 0-82.944-13.312t-65.536-39.424-43.008-65.536-15.36-92.672zM201.728 830.464q16.384 5.12 46.080 7.68t56.32 2.56q43.008 0 73.728-17.92t30.72-61.952q0-16.384-5.632-28.16t-13.824-20.48-17.92-13.824-18.944-7.168l88.064-125.952h-62.464l-79.872 106.496h-43.008v-106.496h-53.248v265.216zM292.864 794.624q-11.264 0-21.504-0.512t-16.384-3.584v-75.776h34.816q62.464 0 62.464 44.032 0 35.84-59.392 35.84z" />
<glyph unicode="&#xaf;" glyph-name="macron" data-tags="macron" d="M155.648 893.952h303.104v-63.488h-303.104v63.488z" />
<glyph unicode="&#xb0;" glyph-name="degree" data-tags="degree" d="M162.816 820.224q0 31.744 11.264 58.368t30.72 45.568 46.080 29.696 56.32 10.752 56.32-9.728 46.080-28.672 30.72-45.568 11.264-60.416-11.264-60.416-30.72-45.568-46.080-28.672-56.32-9.728-56.32 9.728-46.080 28.672-30.72 45.568-11.264 60.416zM227.328 820.224q0-38.912 24.064-60.928t55.808-22.016 55.808 22.016 24.064 60.928-24.064 60.928-55.808 22.016-55.808-22.016-24.064-60.928z" />
<glyph unicode="&#xb1;" glyph-name="plusminus" data-tags="plusminus" d="M90.112 740.352h180.224v185.344h73.728v-185.344h180.224v-73.728h-180.224v-122.88h-73.728v122.88h-180.224v73.728zM90.112 491.52h434.176v-73.728h-434.176v73.728z" />
<glyph unicode="&#xb2;" glyph-name="twosuperior" data-tags="twosuperior" d="M455.68 926.72q0-37.888-20.992-72.192t-54.784-64.512-74.752-55.808-80.896-45.056h251.904v-64.512h-359.424v54.272q16.384 13.312 41.984 29.696t55.296 34.816 59.904 39.424 54.784 43.008 39.936 45.056 15.36 46.592q0 21.504-8.704 36.352t-22.016 24.576-29.184 13.824-31.232 4.096q-23.552 0-43.52-5.632t-36.864-13.824-30.208-17.92-21.504-16.896l-32.768 50.176q9.216 9.216 25.6 20.992t38.912 22.528 51.2 18.432 61.44 7.68q31.744 0 59.392-8.704t47.616-25.6 31.744-41.984 11.776-58.88z" />
<glyph unicode="&#xb3;" glyph-name="threesuperior" data-tags="threesuperior" d="M268.288 678.912q49.152 0 77.824 19.456t28.672 57.344q0 32.768-24.064 53.248t-76.288 20.48h-66.56v38.912l133.12 124.928h-233.472v61.44h323.584v-54.272l-132.096-117.76v-2.048q68.608-1.024 108.032-35.328t39.424-89.6q0-62.464-48.128-100.352t-139.264-37.888q-24.576 0-52.224 5.632t-53.248 15.872-47.104 24.576-33.792 31.744l36.864 53.248q7.168-8.192 21.504-19.968t34.304-23.040 45.568-18.944 57.344-7.68z" />
<glyph unicode="&#xb4;" glyph-name="acute" data-tags="acute" d="M267.264 972.8h111.616l-121.856-152.576h-56.32z" />
<glyph unicode="&#xb5;" glyph-name="mu" data-tags="mu" d="M442.368 311.296h-4.096q-20.48-35.84-62.976-61.952t-103.936-26.112q-31.744 0-58.368 8.192t-45.056 30.72h-5.12l5.12-95.232v-136.192h-81.92v716.8h81.92v-289.792q0-80.896 25.088-121.856t87.552-40.96q56.32 0 95.232 33.28t54.272 87.552v331.776h81.92v-345.088q0-39.936 2.56-61.952t4.608-38.4h65.536v-66.56h-131.072z" />
<glyph unicode="&#xb6;" glyph-name="paragraph" data-tags="paragraph" d="M428.032 952.32h69.632v-849.92h-69.632v849.92zM268.288 552.96q-32.768 0-60.416 16.896t-47.616 45.056-31.744 64.512-11.776 74.24 11.776 73.728 34.304 63.488 55.296 44.544 73.728 16.896h46.080v-849.92h-69.632v450.56z" />
<glyph unicode="&#xb7;" glyph-name="periodcentered" data-tags="periodcentered" d="M238.592 547.84q0 32.768 18.432 50.688t49.152 17.92q32.768 0 51.2-17.92t18.432-50.688q0-29.696-18.432-49.152t-51.2-19.456q-30.72 0-49.152 19.456t-18.432 49.152z" />
<glyph unicode="&#xb8;" glyph-name="cedilla" data-tags="cedilla" d="M335.872 235.52l-24.576-44.032q43.008-8.192 61.952-26.624t18.944-50.176q0-39.936-32.768-66.048t-92.16-26.112q-11.264 0-22.528 1.024t-23.552 3.072l9.216 39.936q6.144-1.024 11.264-1.024h10.24q22.528 0 35.328 4.096t19.456 9.728 8.192 12.8 1.536 13.312q0 28.672-88.064 37.888l49.152 92.16h58.368z" />
<glyph unicode="&#xb9;" glyph-name="onesuperior" data-tags="onesuperior" d="M137.216 687.104h149.504v281.6l-128-71.68-27.648 56.32 169.984 101.376h57.344v-367.616h138.24v-62.464h-359.424v62.464z" />
<glyph unicode="&#xba;" glyph-name="ordmasculine" data-tags="ordmasculine" d="M148.48 790.528q0 46.080 12.288 78.848t33.28 54.272 50.176 31.232 62.976 9.728 62.976-9.216 50.176-29.696 33.28-53.76 12.288-81.408-12.288-81.408-33.28-53.76-50.176-29.696-62.976-9.216-62.976 9.216-50.176 29.696-33.28 53.76-12.288 81.408zM224.256 790.528q0-61.44 22.016-88.064t60.928-26.624q19.456 0 34.816 5.632t26.112 18.432 16.384 34.816 5.632 55.808-5.632 55.808-16.384 34.816-26.112 18.432-34.816 5.632q-38.912 0-60.928-24.064t-22.016-90.624z" />
<glyph unicode="&#xbb;" glyph-name="guillemotright" data-tags="guillemotright" d="M355.328 256l-58.368 50.176 166.912 203.776-159.744 206.848 59.392 49.152 199.68-260.096zM109.568 256l-58.368 50.176 166.912 203.776-159.744 206.848 59.392 49.152 199.68-260.096z" />
<glyph unicode="&#xbc;" glyph-name="onequarter" data-tags="onequarter" d="M442.368 965.632l48.128-20.48-315.392-721.92-49.152 22.528zM562.176 334.848h-52.224v-99.328h-59.392v99.328h-138.24v41.984l147.456 294.912h50.176v-282.624h52.224v-54.272zM450.56 549.888l-73.728-160.768h73.728v160.768zM138.24 867.328l-69.632-60.416-32.768 37.888 120.832 107.52h40.96v-430.080h-59.392v345.088z" />
<glyph unicode="&#xbd;" glyph-name="onehalf" data-tags="onehalf" d="M430.080 965.632l48.128-20.48-315.392-721.92-49.152 22.528zM561.152 561.152q0-68.608-33.792-133.632t-86.016-134.656h132.096v-57.344h-202.752v49.152q19.456 22.528 41.984 53.248t41.984 66.048 32.768 73.216 13.312 74.752q0 29.696-11.776 46.592t-30.208 16.896-35.84-5.632-28.672-14.848l-18.432 49.152q17.408 14.336 42.496 21.504t43.52 7.168q99.328 0 99.328-111.616zM138.24 867.328l-69.632-60.416-32.768 37.888 120.832 107.52h40.96v-430.080h-59.392v345.088z" />
<glyph unicode="&#xbe;" glyph-name="threequarters" data-tags="threequarters" d="M450.56 965.632l48.128-20.48-315.392-721.92-49.152 22.528zM117.76 572.416q31.744 0 46.592 21.504t14.848 59.392q0 32.768-14.336 53.248t-48.128 20.48h-35.84v33.792l76.8 134.144h-109.568v57.344h179.2v-43.008l-78.848-134.144v-3.072q46.080 1.024 68.608-31.232t22.528-87.552q0-62.464-32.768-100.352t-82.944-37.888q-23.552 0-43.52 5.12t-35.328 13.312l13.312 54.272q24.576-15.36 59.392-15.36zM562.176 334.848h-52.224v-99.328h-59.392v99.328h-138.24v41.984l147.456 294.912h50.176v-282.624h52.224v-54.272zM450.56 549.888l-73.728-160.768h73.728v160.768z" />
<glyph unicode="&#xbf;" glyph-name="questiondown" data-tags="questiondown" d="M279.552 700.416q0 27.648 15.872 43.52t42.496 15.872q27.648 0 44.032-15.872t16.384-43.52q0-26.624-16.384-43.008t-44.032-16.384q-26.624 0-42.496 16.384t-15.872 43.008zM376.832 566.272q1.024-5.12 1.024-11.264v-11.264q0-43.008-15.872-73.728t-39.424-54.784-50.688-43.52-50.688-41.472-39.424-48.64-15.872-63.488q0-20.48 8.704-42.496t28.16-41.472 49.664-31.744 72.192-12.288q33.792 0 60.928 7.68t49.152 19.968 39.936 27.136 32.256 29.184l52.224-47.104q-43.008-54.272-100.352-81.408t-147.456-27.136q-61.44 0-104.96 17.408t-71.168 44.544-40.96 60.416-13.312 65.024q0 48.128 16.896 81.92t42.496 59.904 54.784 47.104 54.784 45.056 42.496 53.76 16.896 72.704h67.584z" />
<glyph unicode="&#xc0;" glyph-name="Agrave" data-tags="Agrave" d="M441.344 434.176h-275.456l-65.536-198.656h-83.968l239.616 716.8h100.352l241.664-716.8h-89.088zM192.512 507.904h225.28l-105.472 336.896h-12.288zM384 1005.568h-75.776l-161.792 99.328v21.504h116.736z" />
<glyph unicode="&#xc1;" glyph-name="Aacute" data-tags="Aacute" d="M441.344 434.176h-275.456l-65.536-198.656h-83.968l239.616 716.8h100.352l241.664-716.8h-89.088zM192.512 507.904h225.28l-105.472 336.896h-12.288zM346.112 1126.4h116.736v-21.504l-166.912-99.328h-70.656z" />
<glyph unicode="&#xc2;" glyph-name="Acircumflex" data-tags="Acircumflex" d="M441.344 434.176h-275.456l-65.536-198.656h-83.968l239.616 716.8h100.352l241.664-716.8h-89.088zM192.512 507.904h225.28l-105.472 336.896h-12.288zM279.552 1127.424h61.44l148.48-125.952h-101.376l-78.848 66.56-84.992-66.56h-103.424z" />
<glyph unicode="&#xc3;" glyph-name="Atilde" data-tags="Atilde" d="M441.344 434.176h-275.456l-65.536-198.656h-83.968l239.616 716.8h100.352l241.664-716.8h-89.088zM192.512 507.904h225.28l-105.472 336.896h-12.288zM133.12 1043.456q31.744 32.768 65.024 42.496t57.856 9.728q19.456 0 37.888-5.12t35.328-11.776 33.28-11.776 31.744-5.12q26.624 0 51.2 21.504l29.696-50.176q-27.648-25.6-54.272-32.256t-48.128-6.656q-19.456 0-36.864 5.12t-34.304 11.776-33.28 11.776-32.768 5.12-32.256-6.656-33.28-24.064z" />
<glyph unicode="&#xc4;" glyph-name="Adieresis" data-tags="Adieresis" d="M441.344 434.176h-275.456l-65.536-198.656h-83.968l239.616 716.8h100.352l241.664-716.8h-89.088zM192.512 507.904h225.28l-105.472 336.896h-12.288zM129.024 1054.72q0 23.552 17.92 38.4t46.592 14.848q26.624 0 44.544-14.848t17.92-38.4-17.92-37.888-44.544-14.336q-28.672 0-46.592 14.336t-17.92 37.888zM359.424 1054.72q0 23.552 17.408 38.4t44.032 14.848q29.696 0 47.104-14.848t17.408-38.4-17.408-37.888-47.104-14.336q-26.624 0-44.032 14.336t-17.408 37.888z" />
<glyph unicode="&#xc5;" glyph-name="Aring" data-tags="Aring" d="M199.68 1021.952q0 37.888 25.6 62.464t81.92 24.576q51.2 0 79.872-22.016t28.672-65.024q0-32.768-20.48-54.784t-60.416-28.16l263.168-703.488h-89.088l-73.728 198.656h-264.192l-71.68-198.656h-83.968l262.144 703.488q-38.912 6.144-58.368 28.16t-19.456 54.784zM198.656 507.904h210.944l-105.472 294.912h-1.024zM262.144 1021.952q0-17.408 10.752-29.184t34.304-11.776q22.528 0 34.304 11.264t11.776 29.696q0 19.456-11.264 31.232t-34.816 11.776q-22.528 0-33.792-11.776t-11.264-31.232z" />
<glyph unicode="&#xc6;" glyph-name="AE" data-tags="AE" d="M311.296 800.768l-21.504-67.584-83.968-228.352h107.52v295.936h-2.048zM313.344 431.104h-133.12l-74.752-195.584h-84.992l280.576 716.8h278.528v-76.8h-184.32v-233.472h166.912v-76.8h-166.912v-252.928h187.392v-76.8h-269.312v195.584z" />
<glyph unicode="&#xc7;" glyph-name="Ccedilla" data-tags="Ccedilla" d="M468.992 874.496q-17.408 7.168-38.4 10.752t-50.688 3.584q-41.984 0-82.432-15.36t-71.68-50.176-50.176-91.136-18.944-138.24q0-73.728 16.896-129.024t47.104-92.16 72.704-55.296 94.72-18.432q26.624 0 49.664 4.608t42.496 12.8v102.4h75.776v-138.24l1.024-2.048q-30.72-23.552-77.824-39.936-33.792-10.24-77.824-14.336l-18.432-32.768q43.008-8.192 61.952-26.624t18.944-50.176q0-39.936-32.768-66.048t-92.16-26.112q-11.264 0-22.528 1.024t-23.552 3.072l9.216 39.936q6.144-1.024 11.264-1.024h10.24q22.528 0 35.328 4.096t19.456 9.728 8.192 12.8 1.536 13.312q0 28.672-88.064 37.888l41.984 80.896q-51.2 3.072-97.28 20.48-54.272 22.528-94.208 67.584t-61.952 115.2-22.016 166.4q0 100.352 24.576 170.496t66.56 114.688 97.792 65.024 119.296 20.48q34.816 0 60.416-2.56t45.056-7.168 34.304-11.776 29.184-16.384h1.024v-161.792h-75.776v109.568z" />
<glyph unicode="&#xc8;" glyph-name="Egrave" data-tags="Egrave" d="M109.568 952.32h420.864v-75.776h-335.872v-234.496h310.272v-75.776h-310.272v-254.976h340.992v-75.776h-425.984v716.8zM398.336 1005.568h-75.776l-161.792 99.328v21.504h116.736z" />
<glyph unicode="&#xc9;" glyph-name="Eacute" data-tags="Eacute" d="M109.568 952.32h420.864v-75.776h-335.872v-234.496h310.272v-75.776h-310.272v-254.976h340.992v-75.776h-425.984v716.8zM360.448 1126.4h116.736v-21.504l-166.912-99.328h-70.656z" />
<glyph unicode="&#xca;" glyph-name="Ecircumflex" data-tags="Ecircumflex" d="M109.568 952.32h420.864v-75.776h-335.872v-234.496h310.272v-75.776h-310.272v-254.976h340.992v-75.776h-425.984v716.8zM290.816 1127.424h61.44l148.48-125.952h-101.376l-78.848 66.56-84.992-66.56h-103.424z" />
<glyph unicode="&#xcb;" glyph-name="Edieresis" data-tags="Edieresis" d="M109.568 952.32h420.864v-75.776h-335.872v-234.496h310.272v-75.776h-310.272v-254.976h340.992v-75.776h-425.984v716.8zM140.288 1054.72q0 23.552 17.92 38.4t46.592 14.848q26.624 0 44.544-14.848t17.92-38.4-17.92-37.888-44.544-14.336q-28.672 0-46.592 14.336t-17.92 37.888zM370.688 1054.72q0 23.552 17.408 38.4t44.032 14.848q29.696 0 47.104-14.848t17.408-38.4-17.408-37.888-47.104-14.336q-26.624 0-44.032 14.336t-17.408 37.888z" />
<glyph unicode="&#xcc;" glyph-name="Igrave" data-tags="Igrave" d="M61.44 952.32h491.52v-75.776h-203.776v-565.248h203.776v-75.776h-491.52v75.776h202.752v565.248h-202.752v75.776zM396.288 1005.568h-75.776l-161.792 99.328v21.504h116.736z" />
<glyph unicode="&#xcd;" glyph-name="Iacute" data-tags="Iacute" d="M61.44 952.32h491.52v-75.776h-203.776v-565.248h203.776v-75.776h-491.52v75.776h202.752v565.248h-202.752v75.776zM342.016 1126.4h116.736v-21.504l-166.912-99.328h-70.656z" />
<glyph unicode="&#xce;" glyph-name="Icircumflex" data-tags="Icircumflex" d="M61.44 952.32h491.52v-75.776h-203.776v-565.248h203.776v-75.776h-491.52v75.776h202.752v565.248h-202.752v75.776zM278.528 1127.424h61.44l148.48-125.952h-101.376l-78.848 66.56-84.992-66.56h-103.424z" />
<glyph unicode="&#xcf;" glyph-name="Idieresis" data-tags="Idieresis" d="M61.44 952.32h491.52v-75.776h-203.776v-565.248h203.776v-75.776h-491.52v75.776h202.752v565.248h-202.752v75.776zM129.024 1054.72q0 23.552 17.92 38.4t46.592 14.848q26.624 0 44.544-14.848t17.92-38.4-17.92-37.888-44.544-14.336q-28.672 0-46.592 14.336t-17.92 37.888zM359.424 1054.72q0 23.552 17.408 38.4t44.032 14.848q29.696 0 47.104-14.848t17.408-38.4-17.408-37.888-47.104-14.336q-26.624 0-44.032 14.336t-17.408 37.888z" />
<glyph unicode="&#xd0;" glyph-name="Eth" data-tags="Eth" d="M9.216 636.928h92.16v315.392q38.912 5.12 88.576 6.656t92.672 1.536q86.016 0 145.92-26.624t97.28-74.24 53.76-114.176 16.384-146.432q0-72.704-15.36-139.776t-52.736-118.784-99.84-82.944-155.648-31.232q-16.384 0-40.96 0.512t-50.176 2.048-47.616 2.56-32.256 3.072v340.992h-92.16v61.44zM284.672 884.736q-26.624 0-55.296-1.024t-43.008-4.096v-242.688h140.288v-61.44h-140.288v-269.312q5.12-1.024 17.408-1.536t26.112-1.024 26.624-1.024 17.92-0.512q71.68 0 117.248 24.576t70.656 66.048 34.304 95.232 9.216 111.104q0 50.176-8.192 100.864t-32.256 91.648-67.072 67.072-113.664 26.112z" />
<glyph unicode="&#xd1;" glyph-name="Ntilde" data-tags="Ntilde" d="M200.704 684.032l-55.296 103.424h-4.096l10.24-103.424v-448.512h-79.872v716.8h55.296l288.768-446.464 53.248-98.304h5.12l-11.264 98.304v446.464h79.872v-716.8h-55.296zM133.12 1043.456q31.744 32.768 65.024 42.496t57.856 9.728q19.456 0 37.888-5.12t35.328-11.776 33.28-11.776 31.744-5.12q26.624 0 51.2 21.504l29.696-50.176q-27.648-25.6-54.272-32.256t-48.128-6.656q-19.456 0-36.864 5.12t-34.304 11.776-33.28 11.776-32.768 5.12-32.256-6.656-33.28-24.064z" />
<glyph unicode="&#xd2;" glyph-name="Ograve" data-tags="Ograve" d="M49.152 593.92q0 178.176 62.976 274.432t194.048 96.256q71.68 0 121.344-26.624t80.384-75.264 44.032-116.736 13.312-152.064q0-178.176-62.976-274.432t-196.096-96.256q-70.656 0-119.808 26.624t-79.872 75.264-44.032 116.736-13.312 152.064zM139.264 593.92q0-59.392 7.68-112.64t27.136-93.696 51.2-64.512 80.896-24.064q88.064 0 128.512 71.68t40.448 223.232q0 58.368-7.68 112.128t-27.136 94.208-52.224 64.512-81.92 24.064q-87.040 0-126.976-72.192t-39.936-222.72zM377.856 1005.568h-75.776l-161.792 99.328v21.504h116.736z" />
<glyph unicode="&#xd3;" glyph-name="Oacute" data-tags="Oacute" d="M49.152 593.92q0 178.176 62.976 274.432t194.048 96.256q71.68 0 121.344-26.624t80.384-75.264 44.032-116.736 13.312-152.064q0-178.176-62.976-274.432t-196.096-96.256q-70.656 0-119.808 26.624t-79.872 75.264-44.032 116.736-13.312 152.064zM139.264 593.92q0-59.392 7.68-112.64t27.136-93.696 51.2-64.512 80.896-24.064q88.064 0 128.512 71.68t40.448 223.232q0 58.368-7.68 112.128t-27.136 94.208-52.224 64.512-81.92 24.064q-87.040 0-126.976-72.192t-39.936-222.72zM381.952 1126.4h116.736v-21.504l-166.912-99.328h-70.656z" />
<glyph unicode="&#xd4;" glyph-name="Ocircumflex" data-tags="Ocircumflex" d="M49.152 593.92q0 178.176 62.976 274.432t194.048 96.256q71.68 0 121.344-26.624t80.384-75.264 44.032-116.736 13.312-152.064q0-178.176-62.976-274.432t-196.096-96.256q-70.656 0-119.808 26.624t-79.872 75.264-44.032 116.736-13.312 152.064zM139.264 593.92q0-59.392 7.68-112.64t27.136-93.696 51.2-64.512 80.896-24.064q88.064 0 128.512 71.68t40.448 223.232q0 58.368-7.68 112.128t-27.136 94.208-52.224 64.512-81.92 24.064q-87.040 0-126.976-72.192t-39.936-222.72zM277.504 1127.424h61.44l148.48-125.952h-101.376l-78.848 66.56-84.992-66.56h-103.424z" />
<glyph unicode="&#xd5;" glyph-name="Otilde" data-tags="Otilde" d="M49.152 593.92q0 178.176 62.976 274.432t194.048 96.256q71.68 0 121.344-26.624t80.384-75.264 44.032-116.736 13.312-152.064q0-178.176-62.976-274.432t-196.096-96.256q-70.656 0-119.808 26.624t-79.872 75.264-44.032 116.736-13.312 152.064zM139.264 593.92q0-59.392 7.68-112.64t27.136-93.696 51.2-64.512 80.896-24.064q88.064 0 128.512 71.68t40.448 223.232q0 58.368-7.68 112.128t-27.136 94.208-52.224 64.512-81.92 24.064q-87.040 0-126.976-72.192t-39.936-222.72zM132.096 1043.456q31.744 32.768 65.024 42.496t57.856 9.728q19.456 0 37.888-5.12t35.328-11.776 33.28-11.776 31.744-5.12q26.624 0 51.2 21.504l29.696-50.176q-27.648-25.6-54.272-32.256t-48.128-6.656q-19.456 0-36.864 5.12t-34.304 11.776-33.28 11.776-32.768 5.12-32.256-6.656-33.28-24.064z" />
<glyph unicode="&#xd6;" glyph-name="Odieresis" data-tags="Odieresis" d="M49.152 593.92q0 178.176 62.976 274.432t194.048 96.256q71.68 0 121.344-26.624t80.384-75.264 44.032-116.736 13.312-152.064q0-178.176-62.976-274.432t-196.096-96.256q-70.656 0-119.808 26.624t-79.872 75.264-44.032 116.736-13.312 152.064zM139.264 593.92q0-59.392 7.68-112.64t27.136-93.696 51.2-64.512 80.896-24.064q88.064 0 128.512 71.68t40.448 223.232q0 58.368-7.68 112.128t-27.136 94.208-52.224 64.512-81.92 24.064q-87.040 0-126.976-72.192t-39.936-222.72zM126.976 1054.72q0 23.552 17.92 38.4t46.592 14.848q26.624 0 44.544-14.848t17.92-38.4-17.92-37.888-44.544-14.336q-28.672 0-46.592 14.336t-17.92 37.888zM357.376 1054.72q0 23.552 17.408 38.4t44.032 14.848q29.696 0 47.104-14.848t17.408-38.4-17.408-37.888-47.104-14.336q-26.624 0-44.032 14.336t-17.408 37.888z" />
<glyph unicode="&#xd7;" glyph-name="multiply" data-tags="multiply" d="M178.176 764.928l129.024-130.048 130.048 130.048 52.224-54.272-129.024-129.024 129.024-130.048-52.224-53.248-130.048 131.072-130.048-131.072-53.248 52.224 131.072 132.096-129.024 128z" />
<glyph unicode="&#xd8;" glyph-name="Oslash" data-tags="Oslash" d="M81.92 328.704q-34.816 49.152-51.2 115.712t-16.384 149.504q0 179.2 75.776 274.944t216.064 95.744q58.368 0 103.424-15.36t79.872-45.056l43.008 61.44 53.248-35.84-52.224-73.728q33.792-49.152 50.176-115.2t16.384-146.944q0-179.2-76.288-274.944t-217.6-95.744q-109.568 0-179.2 57.344l-39.936-57.344-53.248 36.864zM104.448 593.92q0-52.224 8.704-98.304t27.136-84.992l296.96 420.864q-23.552 26.624-55.808 41.984t-75.264 15.36q-94.208 0-147.968-72.192t-53.76-222.72zM509.952 593.92q0 49.152-8.704 95.232t-26.112 83.968l-296.96-420.864q23.552-25.6 55.296-39.424t72.704-13.824q95.232 0 149.504 72.192t54.272 222.72z" />
<glyph unicode="&#xd9;" glyph-name="Ugrave" data-tags="Ugrave" d="M471.040 952.32h81.92v-478.208q0-64.512-16.896-111.616t-47.616-77.312-74.752-44.544-97.28-14.336q-126.976 0-190.976 57.344t-64 174.080v494.592h84.992v-454.656q0-54.272 10.752-91.648t31.744-60.416 53.248-33.28 75.264-10.24q82.944 0 118.272 45.568t35.328 150.016v454.656zM391.168 1005.568h-75.776l-161.792 99.328v21.504h116.736z" />
<glyph unicode="&#xda;" glyph-name="Uacute" data-tags="Uacute" d="M471.040 952.32h81.92v-478.208q0-64.512-16.896-111.616t-47.616-77.312-74.752-44.544-97.28-14.336q-126.976 0-190.976 57.344t-64 174.080v494.592h84.992v-454.656q0-54.272 10.752-91.648t31.744-60.416 53.248-33.28 75.264-10.24q82.944 0 118.272 45.568t35.328 150.016v454.656zM372.736 1126.4h116.736v-21.504l-166.912-99.328h-70.656z" />
<glyph unicode="&#xdb;" glyph-name="Ucircumflex" data-tags="Ucircumflex" d="M471.040 952.32h81.92v-478.208q0-64.512-16.896-111.616t-47.616-77.312-74.752-44.544-97.28-14.336q-126.976 0-190.976 57.344t-64 174.080v494.592h84.992v-454.656q0-54.272 10.752-91.648t31.744-60.416 53.248-33.28 75.264-10.24q82.944 0 118.272 45.568t35.328 150.016v454.656zM281.6 1127.424h61.44l148.48-125.952h-101.376l-78.848 66.56-84.992-66.56h-103.424z" />
<glyph unicode="&#xdc;" glyph-name="Udieresis" data-tags="Udieresis" d="M471.040 952.32h81.92v-478.208q0-64.512-16.896-111.616t-47.616-77.312-74.752-44.544-97.28-14.336q-126.976 0-190.976 57.344t-64 174.080v494.592h84.992v-454.656q0-54.272 10.752-91.648t31.744-60.416 53.248-33.28 75.264-10.24q82.944 0 118.272 45.568t35.328 150.016v454.656zM130.048 1054.72q0 23.552 17.92 38.4t46.592 14.848q26.624 0 44.544-14.848t17.92-38.4-17.92-37.888-44.544-14.336q-28.672 0-46.592 14.336t-17.92 37.888zM360.448 1054.72q0 23.552 17.408 38.4t44.032 14.848q29.696 0 47.104-14.848t17.408-38.4-17.408-37.888-47.104-14.336q-26.624 0-44.032 14.336t-17.408 37.888z" />
<glyph unicode="&#xdd;" glyph-name="Yacute" data-tags="Yacute" d="M265.216 509.952l-256 442.368h99.328l204.8-354.304h1.024l199.68 354.304h91.136l-254.976-441.344v-275.456h-84.992v274.432zM363.52 1126.4h116.736v-21.504l-166.912-99.328h-70.656z" />
<glyph unicode="&#xde;" glyph-name="Thorn" data-tags="Thorn" d="M93.184 952.32h84.992v-76.8q10.24 1.024 24.576 1.536t29.696 1.024 29.184 0.512h25.088q47.104 0 95.744-9.216t88.576-33.792 65.024-67.584 25.088-109.568q0-65.536-23.552-110.592t-62.464-73.216-89.088-40.96-103.424-12.8h-19.968t-31.744 0.512-32.256 1.536-20.48 2.048v-189.44h-84.992v716.8zM288.768 804.864h-29.184t-31.744-1.024-29.184-2.048-20.48-3.072v-296.96q5.12-2.048 19.456-2.56t30.72-1.536 30.72-1.024h19.456q34.816 0 69.12 6.656t61.952 24.576 44.544 49.664 16.896 80.896q0 41.984-15.872 70.144t-41.984 45.056-58.88 24.064-65.536 7.168z" />
<glyph unicode="&#xdf;" glyph-name="germandbls" data-tags="germandbls" d="M408.576 807.936q0 17.408-9.728 32.256t-25.088 25.088-33.792 15.872-35.84 5.632q-28.672 0-48.64-7.168t-32.256-23.552-17.92-43.52-5.632-67.072v-509.952h-81.92v440.32h-79.872v71.68h79.872v23.552q0 99.328 48.64 143.36t134.656 44.032q41.984 0 76.8-10.752t59.904-30.72 38.912-47.104 13.824-60.928q0-38.912-19.456-62.464t-42.496-41.984-42.496-35.84-19.456-43.008q0-22.528 15.36-35.84t38.912-23.552 50.176-20.992 50.176-28.16 38.912-45.568 15.36-73.216q0-32.768-12.288-64t-35.328-55.808-57.856-39.936-78.848-15.36q-23.552 0-41.472 1.536t-32.768 5.12-28.16 8.704-26.624 13.312l23.552 66.56q12.288-6.144 21.504-11.264t19.968-8.192 24.064-4.608 32.768-1.536q21.504 0 41.472 7.68t35.328 20.992 24.064 32.256 8.704 41.472q0 30.72-15.36 48.64t-38.912 30.208-50.176 22.016-50.176 24.576-38.912 37.888-15.36 61.952q0 39.936 19.456 64t42.496 43.008 42.496 36.352 19.456 44.032z" />
<glyph unicode="&#xe0;" glyph-name="agrave" data-tags="agrave" d="M110.592 707.584q44.032 25.6 99.328 36.864t108.544 11.264q52.224 0 85.504-16.384t52.224-42.496 25.6-59.392 6.656-67.072q0-38.912-2.048-82.944t-3.072-88.064q0-51.2 6.144-97.28h68.608v-66.56h-136.192l-9.216 76.8h-5.12q-6.144-9.216-18.432-23.552t-32.256-28.16-48.64-24.064-67.584-10.24q-75.776 0-119.808 38.912t-44.032 106.496q0 52.224 23.040 87.040t66.048 53.248 103.936 21.504 136.704-8.192q5.12 47.104 1.536 78.336t-16.384 49.664-35.84 26.112-56.832 7.68q-46.080 0-88.064-12.8t-74.752-26.112zM261.12 294.912q28.672 0 53.248 9.216t43.008 23.552 30.72 31.232 18.432 32.256v71.68q-53.248 9.216-98.304 9.216t-77.824-9.728-51.2-30.208-18.432-53.248q0-33.792 23.040-58.88t77.312-25.088zM369.664 820.224h-56.32l-121.856 152.576h111.616z" />
<glyph unicode="&#xe1;" glyph-name="aacute" data-tags="aacute" d="M110.592 707.584q44.032 25.6 99.328 36.864t108.544 11.264q52.224 0 85.504-16.384t52.224-42.496 25.6-59.392 6.656-67.072q0-38.912-2.048-82.944t-3.072-88.064q0-51.2 6.144-97.28h68.608v-66.56h-136.192l-9.216 76.8h-5.12q-6.144-9.216-18.432-23.552t-32.256-28.16-48.64-24.064-67.584-10.24q-75.776 0-119.808 38.912t-44.032 106.496q0 52.224 23.040 87.040t66.048 53.248 103.936 21.504 136.704-8.192q5.12 47.104 1.536 78.336t-16.384 49.664-35.84 26.112-56.832 7.68q-46.080 0-88.064-12.8t-74.752-26.112zM261.12 294.912q28.672 0 53.248 9.216t43.008 23.552 30.72 31.232 18.432 32.256v71.68q-53.248 9.216-98.304 9.216t-77.824-9.728-51.2-30.208-18.432-53.248q0-33.792 23.040-58.88t77.312-25.088zM306.176 972.8h111.616l-121.856-152.576h-56.32z" />
<glyph unicode="&#xe2;" glyph-name="acircumflex" data-tags="acircumflex" d="M110.592 707.584q44.032 25.6 99.328 36.864t108.544 11.264q52.224 0 85.504-16.384t52.224-42.496 25.6-59.392 6.656-67.072q0-38.912-2.048-82.944t-3.072-88.064q0-51.2 6.144-97.28h68.608v-66.56h-136.192l-9.216 76.8h-5.12q-6.144-9.216-18.432-23.552t-32.256-28.16-48.64-24.064-67.584-10.24q-75.776 0-119.808 38.912t-44.032 106.496q0 52.224 23.040 87.040t66.048 53.248 103.936 21.504 136.704-8.192q5.12 47.104 1.536 78.336t-16.384 49.664-35.84 26.112-56.832 7.68q-46.080 0-88.064-12.8t-74.752-26.112zM261.12 294.912q28.672 0 53.248 9.216t43.008 23.552 30.72 31.232 18.432 32.256v71.68q-53.248 9.216-98.304 9.216t-77.824-9.728-51.2-30.208-18.432-53.248q0-33.792 23.040-58.88t77.312-25.088zM288.768 985.088h37.888l138.24-186.368h-79.872l-82.944 111.616-88.064-111.616h-71.68z" />
<glyph unicode="&#xe3;" glyph-name="atilde" data-tags="atilde" d="M110.592 707.584q44.032 25.6 99.328 36.864t108.544 11.264q52.224 0 85.504-16.384t52.224-42.496 25.6-59.392 6.656-67.072q0-38.912-2.048-82.944t-3.072-88.064q0-51.2 6.144-97.28h68.608v-66.56h-136.192l-9.216 76.8h-5.12q-6.144-9.216-18.432-23.552t-32.256-28.16-48.64-24.064-67.584-10.24q-75.776 0-119.808 38.912t-44.032 106.496q0 52.224 23.040 87.040t66.048 53.248 103.936 21.504 136.704-8.192q5.12 47.104 1.536 78.336t-16.384 49.664-35.84 26.112-56.832 7.68q-46.080 0-88.064-12.8t-74.752-26.112zM261.12 294.912q28.672 0 53.248 9.216t43.008 23.552 30.72 31.232 18.432 32.256v71.68q-53.248 9.216-98.304 9.216t-77.824-9.728-51.2-30.208-18.432-53.248q0-33.792 23.040-58.88t77.312-25.088zM144.384 905.216q29.696 33.792 61.44 47.616t52.224 13.824q17.408 0 32.256-6.656t28.672-14.336 26.624-13.824 27.136-6.144q22.528 0 47.104 24.576l35.84-45.056q-26.624-29.696-49.664-40.448t-50.688-9.728q-16.384 0-30.72 6.656t-28.16 14.336-27.648 13.824-28.16 6.144q-13.312 0-27.136-7.168t-31.232-24.576z" />
<glyph unicode="&#xe4;" glyph-name="adieresis" data-tags="adieresis" d="M110.592 707.584q44.032 25.6 99.328 36.864t108.544 11.264q52.224 0 85.504-16.384t52.224-42.496 25.6-59.392 6.656-67.072q0-38.912-2.048-82.944t-3.072-88.064q0-51.2 6.144-97.28h68.608v-66.56h-136.192l-9.216 76.8h-5.12q-6.144-9.216-18.432-23.552t-32.256-28.16-48.64-24.064-67.584-10.24q-75.776 0-119.808 38.912t-44.032 106.496q0 52.224 23.040 87.040t66.048 53.248 103.936 21.504 136.704-8.192q5.12 47.104 1.536 78.336t-16.384 49.664-35.84 26.112-56.832 7.68q-46.080 0-88.064-12.8t-74.752-26.112zM261.12 294.912q28.672 0 53.248 9.216t43.008 23.552 30.72 31.232 18.432 32.256v71.68q-53.248 9.216-98.304 9.216t-77.824-9.728-51.2-30.208-18.432-53.248q0-33.792 23.040-58.88t77.312-25.088zM130.048 896q0 26.624 15.872 43.52t42.496 16.896q25.6 0 41.984-16.896t16.384-43.52q0-24.576-16.384-41.472t-41.984-16.896q-26.624 0-42.496 16.896t-15.872 41.472zM358.4 896q0 26.624 15.872 43.52t41.472 16.896q26.624 0 43.52-16.896t16.896-43.52q0-24.576-16.896-41.472t-43.52-16.896q-25.6 0-41.472 16.896t-15.872 41.472z" />
<glyph unicode="&#xe5;" glyph-name="aring" data-tags="aring" d="M110.592 707.584q44.032 25.6 99.328 36.864t108.544 11.264q52.224 0 85.504-16.384t52.224-42.496 25.6-59.392 6.656-67.072q0-38.912-2.048-82.944t-3.072-88.064q0-51.2 6.144-97.28h68.608v-66.56h-136.192l-9.216 76.8h-5.12q-6.144-9.216-18.432-23.552t-32.256-28.16-48.64-24.064-67.584-10.24q-75.776 0-119.808 38.912t-44.032 106.496q0 52.224 23.040 87.040t66.048 53.248 103.936 21.504 136.704-8.192q5.12 47.104 1.536 78.336t-16.384 49.664-35.84 26.112-56.832 7.68q-46.080 0-88.064-12.8t-74.752-26.112zM261.12 294.912q28.672 0 53.248 9.216t43.008 23.552 30.72 31.232 18.432 32.256v71.68q-53.248 9.216-98.304 9.216t-77.824-9.728-51.2-30.208-18.432-53.248q0-33.792 23.040-58.88t77.312-25.088zM202.752 893.952q0 43.008 27.136 68.096t72.192 25.088q43.008 0 71.68-22.528t28.672-70.656q0-39.936-28.672-66.048t-71.68-26.112-71.168 24.064-28.16 68.096zM258.048 893.952q0-20.48 13.312-31.744t30.72-11.264q19.456 0 32.256 10.24t12.8 32.768-13.824 33.28-31.232 10.752-30.72-10.24-13.312-33.792z" />
<glyph unicode="&#xe6;" glyph-name="ae" data-tags="ae" d="M179.2 295.936q32.768 0 56.832 17.92t31.232 44.544v107.52q-3.072 0-11.264 0.512t-16.896 1.024-16.896 0.512h-11.264q-20.48 0-39.936-2.56t-33.792-11.264-23.040-25.6-8.704-44.544q0-35.84 17.408-61.952t56.32-26.112zM289.792 302.080q-17.408-35.84-50.176-55.296t-84.992-19.456q-55.296 0-90.112 40.96t-34.816 108.544q0 44.032 12.288 74.24t34.816 48.64 52.736 26.112 67.072 7.68h13.824t20.48-0.512 20.48-1.024 14.848-0.512q1.024 14.336 1.536 27.648t0.512 24.576q0 29.696-8.192 49.664t-20.992 31.744-29.696 16.896-35.328 5.12q-23.552 0-51.2-9.728t-47.104-25.088l-19.456 59.392q25.6 22.528 60.928 33.28t73.216 10.752q17.408 0 36.352-4.096t36.352-12.288 30.72-19.968 18.432-28.16q9.216 18.432 24.064 31.232t32.256 21.504 35.84 12.288 33.792 3.584q23.552 0 49.664-7.68t47.616-29.184 35.328-58.368 13.824-95.232q0-20.48-1.024-48.128t-4.096-51.2h-246.784q1.024-98.304 33.792-138.24t87.040-39.936q12.288 0 25.6 2.56t26.112 6.144 23.040 8.704 15.36 10.24l24.576-57.344q-20.48-17.408-56.832-28.16t-75.264-10.752q-20.48 0-42.496 5.12t-41.472 14.848-34.816 24.576-23.552 34.304h-4.096zM438.272 691.2q-18.432 0-36.352-9.216t-32.256-28.672-24.064-48.128-10.752-68.608h179.2v18.432q0 68.608-23.040 102.4t-52.736 33.792z" />
<glyph unicode="&#xe7;" glyph-name="ccedilla" data-tags="ccedilla" d="M449.536 668.672q-23.552 8.192-50.688 13.824t-53.76 5.632q-100.352 0-149.504-47.104t-49.152-149.504q0-45.056 14.336-80.384t40.96-59.904 64-37.888 82.432-13.312q48.128 0 93.696 16.384t76.288 43.008l35.84-59.392q-26.624-23.552-77.824-47.616t-121.856-28.16l-17.408-32.768q43.008-8.192 61.952-26.624t18.944-50.176q0-39.936-32.768-66.048t-92.16-26.112q-11.264 0-22.528 1.024t-23.552 3.072l9.216 39.936q6.144-1.024 11.264-1.024h10.24q22.528 0 35.328 4.096t19.456 9.728 8.192 12.8 1.536 13.312q0 28.672-88.064 37.888l43.008 81.92q-116.736 9.216-176.128 80.896t-59.392 185.344q0 64.512 17.92 114.688t51.712 83.968 81.92 51.712 107.52 17.92q75.776 0 123.392-13.312t80.384-29.696l-1.024-3.072v-142.336h-73.728v97.28z" />
<glyph unicode="&#xe8;" glyph-name="egrave" data-tags="egrave" d="M541.696 300.032q-18.432-16.384-43.52-30.72t-54.784-24.576-61.952-15.872-65.024-5.632q-61.44 0-108.544 18.944t-78.848 54.272-48.128 84.48-16.384 110.592q0 64.512 17.92 114.688t51.712 83.968 81.92 51.712 107.52 17.92q43.008 0 84.992-11.264t74.24-42.496 49.664-86.016 12.288-141.824h-396.288q0-92.16 49.664-137.728t132.608-45.568q27.648 0 54.784 6.656t51.712 15.872 43.52 20.48 29.184 20.48zM325.632 692.224q-33.792 0-64-7.168t-53.248-24.064-37.888-44.032-18.944-67.072h318.464q-5.12 67.584-43.52 104.96t-100.864 37.376zM375.808 820.224h-56.32l-121.856 152.576h111.616z" />
<glyph unicode="&#xe9;" glyph-name="eacute" data-tags="eacute" d="M541.696 300.032q-18.432-16.384-43.52-30.72t-54.784-24.576-61.952-15.872-65.024-5.632q-61.44 0-108.544 18.944t-78.848 54.272-48.128 84.48-16.384 110.592q0 64.512 17.92 114.688t51.712 83.968 81.92 51.712 107.52 17.92q43.008 0 84.992-11.264t74.24-42.496 49.664-86.016 12.288-141.824h-396.288q0-92.16 49.664-137.728t132.608-45.568q27.648 0 54.784 6.656t51.712 15.872 43.52 20.48 29.184 20.48zM325.632 692.224q-33.792 0-64-7.168t-53.248-24.064-37.888-44.032-18.944-67.072h318.464q-5.12 67.584-43.52 104.96t-100.864 37.376zM320.512 972.8h111.616l-121.856-152.576h-56.32z" />
<glyph unicode="&#xea;" glyph-name="ecircumflex" data-tags="ecircumflex" d="M541.696 300.032q-18.432-16.384-43.52-30.72t-54.784-24.576-61.952-15.872-65.024-5.632q-61.44 0-108.544 18.944t-78.848 54.272-48.128 84.48-16.384 110.592q0 64.512 17.92 114.688t51.712 83.968 81.92 51.712 107.52 17.92q43.008 0 84.992-11.264t74.24-42.496 49.664-86.016 12.288-141.824h-396.288q0-92.16 49.664-137.728t132.608-45.568q27.648 0 54.784 6.656t51.712 15.872 43.52 20.48 29.184 20.48zM325.632 692.224q-33.792 0-64-7.168t-53.248-24.064-37.888-44.032-18.944-67.072h318.464q-5.12 67.584-43.52 104.96t-100.864 37.376zM294.912 985.088h37.888l138.24-186.368h-79.872l-82.944 111.616-88.064-111.616h-71.68z" />
<glyph unicode="&#xeb;" glyph-name="edieresis" data-tags="edieresis" d="M541.696 300.032q-18.432-16.384-43.52-30.72t-54.784-24.576-61.952-15.872-65.024-5.632q-61.44 0-108.544 18.944t-78.848 54.272-48.128 84.48-16.384 110.592q0 64.512 17.92 114.688t51.712 83.968 81.92 51.712 107.52 17.92q43.008 0 84.992-11.264t74.24-42.496 49.664-86.016 12.288-141.824h-396.288q0-92.16 49.664-137.728t132.608-45.568q27.648 0 54.784 6.656t51.712 15.872 43.52 20.48 29.184 20.48zM325.632 692.224q-33.792 0-64-7.168t-53.248-24.064-37.888-44.032-18.944-67.072h318.464q-5.12 67.584-43.52 104.96t-100.864 37.376zM144.384 896q0 26.624 15.872 43.52t42.496 16.896q25.6 0 41.984-16.896t16.384-43.52q0-24.576-16.384-41.472t-41.984-16.896q-26.624 0-42.496 16.896t-15.872 41.472zM372.736 896q0 26.624 15.872 43.52t41.472 16.896q26.624 0 43.52-16.896t16.896-43.52q0-24.576-16.896-41.472t-43.52-16.896q-25.6 0-41.472 16.896t-15.872 41.472z" />
<glyph unicode="&#xec;" glyph-name="igrave" data-tags="igrave" d="M149.504 235.52v68.608h178.176v374.784h-178.176v68.608h260.096v-443.392h174.080v-68.608h-434.176zM377.856 820.224h-56.32l-121.856 152.576h111.616z" />
<glyph unicode="&#xed;" glyph-name="iacute" data-tags="iacute" d="M107.52 235.52v68.608h178.176v374.784h-178.176v68.608h260.096v-443.392h174.080v-68.608h-434.176zM303.104 972.8h111.616l-121.856-152.576h-56.32z" />
<glyph unicode="&#xee;" glyph-name="icircumflex" data-tags="icircumflex" d="M107.52 235.52v68.608h178.176v374.784h-178.176v68.608h260.096v-443.392h174.080v-68.608h-434.176zM280.576 985.088h37.888l138.24-186.368h-79.872l-82.944 111.616-88.064-111.616h-71.68z" />
<glyph unicode="&#xef;" glyph-name="idieresis" data-tags="idieresis" d="M109.568 235.52v68.608h178.176v374.784h-178.176v68.608h260.096v-443.392h174.080v-68.608h-434.176zM134.144 896q0 26.624 15.872 43.52t42.496 16.896q25.6 0 41.984-16.896t16.384-43.52q0-24.576-16.384-41.472t-41.984-16.896q-26.624 0-42.496 16.896t-15.872 41.472zM362.496 896q0 26.624 15.872 43.52t41.472 16.896q26.624 0 43.52-16.896t16.896-43.52q0-24.576-16.896-41.472t-43.52-16.896q-25.6 0-41.472 16.896t-15.872 41.472z" />
<glyph unicode="&#xf0;" glyph-name="eth" data-tags="eth" d="M244.736 845.824l58.368 31.744q-38.912 23.552-77.824 32.768l35.84 55.296q18.432-7.168 47.104-19.456t59.392-33.792l69.632 37.888 26.624-46.080-51.2-27.648q24.576-23.552 51.712-54.784t50.176-72.704 38.4-93.696 15.36-117.76q0-82.944-21.504-142.336t-57.856-97.792-83.456-56.32-97.28-17.92q-66.56 0-114.176 21.504t-78.336 58.368-45.056 85.504-14.336 103.936q0 53.248 15.872 101.376t47.104 84.48 78.336 57.856 108.544 21.504q46.080 0 84.992-13.312t65.536-33.792q-17.408 35.84-47.104 70.656t-59.392 61.44l-77.824-41.984zM141.312 491.52q0-50.176 13.312-87.040t36.352-61.44 54.272-36.352 67.072-11.776q32.768 0 64 13.312t55.808 41.984 39.424 73.728 14.848 108.544q0 10.24-0.512 23.040l-1.024 25.6t-2.048 24.576-3.584 19.968q-14.336 15.36-34.816 26.624t-42.496 18.944-45.056 11.264-42.496 3.584q-45.056 0-77.312-15.36t-53.76-41.472-31.744-61.44-10.24-76.288z" />
<glyph unicode="&#xf1;" glyph-name="ntilde" data-tags="ntilde" d="M95.232 568.32q0 9.216-0.512 24.064t-1.536 30.72-2.56 31.232-3.584 26.624h-68.608v66.56h137.216l9.216-82.944h5.12q10.24 17.408 27.136 34.304t39.424 30.72 50.176 22.016 58.368 8.192q47.104 0 83.456-10.24t60.416-36.352 36.352-70.656 12.288-113.152v-293.888h-79.872v278.528q0 84.992-27.648 128t-100.352 43.008q-26.624 0-51.712-10.752t-45.568-28.16-35.84-40.448-22.528-48.64v-321.536h-78.848v332.8zM149.504 905.216q29.696 33.792 61.44 47.616t52.224 13.824q17.408 0 32.256-6.656t28.672-14.336 26.624-13.824 27.136-6.144q22.528 0 47.104 24.576l35.84-45.056q-26.624-29.696-49.664-40.448t-50.688-9.728q-16.384 0-30.72 6.656t-28.16 14.336-27.648 13.824-28.16 6.144q-13.312 0-27.136-7.168t-31.232-24.576z" />
<glyph unicode="&#xf2;" glyph-name="ograve" data-tags="ograve" d="M58.368 491.52q0 123.904 64.512 196.096t184.32 72.192q64.512 0 111.104-20.992t77.312-56.832 45.568-84.992 14.848-105.472q0-61.44-16.384-111.104t-48.128-84.48-78.336-53.76-105.984-18.944q-63.488 0-110.592 20.992t-77.824 56.832-45.568 84.992-14.848 105.472zM143.36 491.52q0-35.84 8.704-71.68t28.16-64.512 50.688-46.080 76.288-17.408q81.92 0 123.392 50.688t41.472 148.992q0 36.864-8.704 72.192t-28.672 64-51.2 46.080-76.288 17.408q-81.92 0-122.88-50.176t-40.96-149.504zM348.16 820.224h-56.32l-121.856 152.576h111.616z" />
<glyph unicode="&#xf3;" glyph-name="oacute" data-tags="oacute" d="M58.368 491.52q0 123.904 64.512 196.096t184.32 72.192q64.512 0 111.104-20.992t77.312-56.832 45.568-84.992 14.848-105.472q0-61.44-16.384-111.104t-48.128-84.48-78.336-53.76-105.984-18.944q-63.488 0-110.592 20.992t-77.824 56.832-45.568 84.992-14.848 105.472zM143.36 491.52q0-35.84 8.704-71.68t28.16-64.512 50.688-46.080 76.288-17.408q81.92 0 123.392 50.688t41.472 148.992q0 36.864-8.704 72.192t-28.672 64-51.2 46.080-76.288 17.408q-81.92 0-122.88-50.176t-40.96-149.504zM331.776 972.8h111.616l-121.856-152.576h-56.32z" />
<glyph unicode="&#xf4;" glyph-name="ocircumflex" data-tags="ocircumflex" d="M58.368 491.52q0 123.904 64.512 196.096t184.32 72.192q64.512 0 111.104-20.992t77.312-56.832 45.568-84.992 14.848-105.472q0-61.44-16.384-111.104t-48.128-84.48-78.336-53.76-105.984-18.944q-63.488 0-110.592 20.992t-77.824 56.832-45.568 84.992-14.848 105.472zM143.36 491.52q0-35.84 8.704-71.68t28.16-64.512 50.688-46.080 76.288-17.408q81.92 0 123.392 50.688t41.472 148.992q0 36.864-8.704 72.192t-28.672 64-51.2 46.080-76.288 17.408q-81.92 0-122.88-50.176t-40.96-149.504zM293.888 985.088h37.888l138.24-186.368h-79.872l-82.944 111.616-88.064-111.616h-71.68z" />
<glyph unicode="&#xf5;" glyph-name="otilde" data-tags="otilde" d="M58.368 491.52q0 123.904 64.512 196.096t184.32 72.192q64.512 0 111.104-20.992t77.312-56.832 45.568-84.992 14.848-105.472q0-61.44-16.384-111.104t-48.128-84.48-78.336-53.76-105.984-18.944q-63.488 0-110.592 20.992t-77.824 56.832-45.568 84.992-14.848 105.472zM143.36 491.52q0-35.84 8.704-71.68t28.16-64.512 50.688-46.080 76.288-17.408q81.92 0 123.392 50.688t41.472 148.992q0 36.864-8.704 72.192t-28.672 64-51.2 46.080-76.288 17.408q-81.92 0-122.88-50.176t-40.96-149.504zM150.528 905.216q29.696 33.792 61.44 47.616t52.224 13.824q17.408 0 32.256-6.656t28.672-14.336 26.624-13.824 27.136-6.144q22.528 0 47.104 24.576l35.84-45.056q-26.624-29.696-49.664-40.448t-50.688-9.728q-16.384 0-30.72 6.656t-28.16 14.336-27.648 13.824-28.16 6.144q-13.312 0-27.136-7.168t-31.232-24.576z" />
<glyph unicode="&#xf6;" glyph-name="odieresis" data-tags="odieresis" d="M58.368 491.52q0 123.904 64.512 196.096t184.32 72.192q64.512 0 111.104-20.992t77.312-56.832 45.568-84.992 14.848-105.472q0-61.44-16.384-111.104t-48.128-84.48-78.336-53.76-105.984-18.944q-63.488 0-110.592 20.992t-77.824 56.832-45.568 84.992-14.848 105.472zM143.36 491.52q0-35.84 8.704-71.68t28.16-64.512 50.688-46.080 76.288-17.408q81.92 0 123.392 50.688t41.472 148.992q0 36.864-8.704 72.192t-28.672 64-51.2 46.080-76.288 17.408q-81.92 0-122.88-50.176t-40.96-149.504zM133.12 896q0 26.624 15.872 43.52t42.496 16.896q25.6 0 41.984-16.896t16.384-43.52q0-24.576-16.384-41.472t-41.984-16.896q-26.624 0-42.496 16.896t-15.872 41.472zM361.472 896q0 26.624 15.872 43.52t41.472 16.896q26.624 0 43.52-16.896t16.896-43.52q0-24.576-16.896-41.472t-43.52-16.896q-25.6 0-41.472 16.896t-15.872 41.472z" />
<glyph unicode="&#xf7;" glyph-name="divide1" data-tags="divide" d="M69.632 618.496h475.136v-73.728h-475.136v73.728zM239.616 782.336q0 32.768 18.432 50.688t49.152 17.92q32.768 0 51.2-17.92t18.432-50.688q0-29.696-18.432-49.152t-51.2-19.456q-30.72 0-49.152 19.456t-18.432 49.152zM239.616 398.336q0 32.768 18.432 50.688t49.152 17.92q32.768 0 51.2-17.92t18.432-50.688q0-29.696-18.432-49.152t-51.2-19.456q-30.72 0-49.152 19.456t-18.432 49.152z" />
<glyph unicode="&#xf8;" glyph-name="oslash" data-tags="oslash" d="M58.368 491.52q0 123.904 64.512 196.096t184.32 72.192q64.512 0 110.592-21.504 8.192-3.072 15.36-7.168l23.552 31.744 55.296-37.888-24.576-33.792 8.192-9.216q30.72-35.84 45.568-84.992t14.848-105.472q0-61.44-16.384-111.104t-48.128-84.48-78.336-53.76-105.984-18.944q-63.488 0-110.592 20.48-11.264 5.12-22.528 11.264l-24.576-34.816-53.248 37.888 26.624 37.888q-2.048 2.048-4.096 5.12-30.72 35.84-45.568 84.992t-14.848 105.472zM230.4 309.248q31.744-17.408 76.8-17.408 81.92 0 123.392 50.688t41.472 148.992q0 36.864-9.216 71.68-7.168 32.768-24.576 59.392l-220.16-306.176zM143.36 491.52q0-35.84 8.192-71.68 7.168-29.696 21.504-54.272l217.088 304.128q-3.072 2.048-7.168 4.096-30.72 17.408-75.776 17.408-81.92 0-122.88-50.176t-40.96-149.504z" />
<glyph unicode="&#xf9;" glyph-name="ugrave" data-tags="ugrave" d="M371.712 747.52h145.408v-349.184q0-50.176 6.144-96.256h68.608v-66.56h-136.192l-3.072 87.040h-4.096q-26.624-44.032-70.656-71.68t-106.496-27.648q-47.104 0-80.384 10.752t-54.784 37.376-31.744 71.168-10.24 111.104v225.28h-68.608v68.608h148.48v-277.504q0-41.984 3.584-75.264t14.848-56.32 33.28-34.816 58.88-11.776q53.248 0 92.672 34.816t59.904 87.040v265.216h-65.536v68.608zM329.728 820.224h-56.32l-121.856 152.576h111.616z" />
<glyph unicode="&#xfa;" glyph-name="uacute" data-tags="uacute" d="M371.712 747.52h145.408v-349.184q0-50.176 6.144-96.256h68.608v-66.56h-136.192l-3.072 87.040h-4.096q-26.624-44.032-70.656-71.68t-106.496-27.648q-47.104 0-80.384 10.752t-54.784 37.376-31.744 71.168-10.24 111.104v225.28h-68.608v68.608h148.48v-277.504q0-41.984 3.584-75.264t14.848-56.32 33.28-34.816 58.88-11.776q53.248 0 92.672 34.816t59.904 87.040v265.216h-65.536v68.608zM290.816 972.8h111.616l-121.856-152.576h-56.32z" />
<glyph unicode="&#xfb;" glyph-name="ucircumflex" data-tags="ucircumflex" d="M371.712 747.52h145.408v-349.184q0-50.176 6.144-96.256h68.608v-66.56h-136.192l-3.072 87.040h-4.096q-26.624-44.032-70.656-71.68t-106.496-27.648q-47.104 0-80.384 10.752t-54.784 37.376-31.744 71.168-10.24 111.104v225.28h-68.608v68.608h148.48v-277.504q0-41.984 3.584-75.264t14.848-56.32 33.28-34.816 58.88-11.776q53.248 0 92.672 34.816t59.904 87.040v265.216h-65.536v68.608zM287.744 985.088h37.888l138.24-186.368h-79.872l-82.944 111.616-88.064-111.616h-71.68z" />
<glyph unicode="&#xfc;" glyph-name="udieresis" data-tags="udieresis" d="M371.712 747.52h145.408v-349.184q0-50.176 6.144-96.256h68.608v-66.56h-136.192l-3.072 87.040h-4.096q-26.624-44.032-70.656-71.68t-106.496-27.648q-47.104 0-80.384 10.752t-54.784 37.376-31.744 71.168-10.24 111.104v225.28h-68.608v68.608h148.48v-277.504q0-41.984 3.584-75.264t14.848-56.32 33.28-34.816 58.88-11.776q53.248 0 92.672 34.816t59.904 87.040v265.216h-65.536v68.608zM128 896q0 26.624 15.872 43.52t42.496 16.896q25.6 0 41.984-16.896t16.384-43.52q0-24.576-16.384-41.472t-41.984-16.896q-26.624 0-42.496 16.896t-15.872 41.472zM356.352 896q0 26.624 15.872 43.52t41.472 16.896q26.624 0 43.52-16.896t16.896-43.52q0-24.576-16.896-41.472t-43.52-16.896q-25.6 0-41.472 16.896t-15.872 41.472z" />
<glyph unicode="&#xfd;" glyph-name="yacute" data-tags="yacute" d="M318.464 314.368h38.912l126.976 433.152h82.944l-142.336-459.776q-11.264-35.84-23.040-81.408t-33.28-85.504-58.368-67.584-96.256-27.648q-13.312 0-28.16 3.072t-29.184 7.68-26.624 10.752-18.432 12.288l28.672 73.728q6.144-5.12 16.896-10.24t23.552-8.704 25.088-6.144 20.48-2.56q76.8 0 104.448 130.048h-68.608l-215.040 512h92.16zM346.112 972.8h111.616l-121.856-152.576h-56.32z" />
<glyph unicode="&#xfe;" glyph-name="thorn" data-tags="thorn" d="M98.304 885.76h-76.8v66.56h155.648v-276.48q23.552 32.768 66.048 58.368t103.936 25.6q109.568 0 164.864-60.416t55.296-197.632q0-64.512-18.944-116.224t-53.76-87.552-83.968-55.296-108.544-19.456q-21.504 0-38.4 1.536t-30.72 4.096-27.136 6.656-28.672 10.24v-215.040h-78.848v855.040zM333.824 685.056q-30.72 0-57.856-11.264t-48.128-29.696-34.304-40.96-16.384-45.056v-233.472q22.528-15.36 50.688-24.064t74.24-8.704q81.92 0 131.072 53.76t49.152 157.184q0 87.040-34.304 134.656t-114.176 47.616z" />
<glyph unicode="&#xff;" glyph-name="ydieresis" data-tags="ydieresis" d="M318.464 314.368h38.912l126.976 433.152h82.944l-142.336-459.776q-11.264-35.84-23.040-81.408t-33.28-85.504-58.368-67.584-96.256-27.648q-13.312 0-28.16 3.072t-29.184 7.68-26.624 10.752-18.432 12.288l28.672 73.728q6.144-5.12 16.896-10.24t23.552-8.704 25.088-6.144 20.48-2.56q76.8 0 104.448 130.048h-68.608l-215.040 512h92.16zM143.36 896q0 26.624 15.872 43.52t42.496 16.896q25.6 0 41.984-16.896t16.384-43.52q0-24.576-16.384-41.472t-41.984-16.896q-26.624 0-42.496 16.896t-15.872 41.472zM371.712 896q0 26.624 15.872 43.52t41.472 16.896q26.624 0 43.52-16.896t16.896-43.52q0-24.576-16.896-41.472t-43.52-16.896q-25.6 0-41.472 16.896t-15.872 41.472z" />
<glyph unicode="&#x100;" glyph-name="Amacron" data-tags="Amacron" d="M441.344 434.176h-275.456l-65.536-198.656h-83.968l239.616 716.8h100.352l241.664-716.8h-89.088zM192.512 507.904h225.28l-105.472 336.896h-12.288zM144.384 1098.752h323.584v-63.488h-323.584v63.488z" />
<glyph unicode="&#x101;" glyph-name="amacron" data-tags="amacron" d="M110.592 707.584q44.032 25.6 99.328 36.864t108.544 11.264q52.224 0 85.504-16.384t52.224-42.496 25.6-59.392 6.656-67.072q0-38.912-2.048-82.944t-3.072-88.064q0-51.2 6.144-97.28h68.608v-66.56h-136.192l-9.216 76.8h-5.12q-6.144-9.216-18.432-23.552t-32.256-28.16-48.64-24.064-67.584-10.24q-75.776 0-119.808 38.912t-44.032 106.496q0 52.224 23.040 87.040t66.048 53.248 103.936 21.504 136.704-8.192q5.12 47.104 1.536 78.336t-16.384 49.664-35.84 26.112-56.832 7.68q-46.080 0-88.064-12.8t-74.752-26.112zM261.12 294.912q28.672 0 53.248 9.216t43.008 23.552 30.72 31.232 18.432 32.256v71.68q-53.248 9.216-98.304 9.216t-77.824-9.728-51.2-30.208-18.432-53.248q0-33.792 23.040-58.88t77.312-25.088zM169.984 893.952h303.104v-63.488h-303.104v63.488z" />
<glyph unicode="&#x102;" glyph-name="Abreve" data-tags="Abreve" d="M441.344 434.176h-275.456l-65.536-198.656h-83.968l239.616 716.8h100.352l241.664-716.8h-89.088zM192.512 507.904h225.28l-105.472 336.896h-12.288zM175.104 1127.424q17.408-34.816 53.248-53.76t83.968-18.944q49.152 0 82.944 21.504t48.128 51.2l48.128-26.624q-22.528-58.368-72.192-88.064t-108.032-29.696q-27.648 0-55.296 6.144t-53.248 19.456-46.080 34.816-33.792 52.224z" />
<glyph unicode="&#x103;" glyph-name="abreve" data-tags="abreve" d="M110.592 707.584q44.032 25.6 99.328 36.864t108.544 11.264q52.224 0 85.504-16.384t52.224-42.496 25.6-59.392 6.656-67.072q0-38.912-2.048-82.944t-3.072-88.064q0-51.2 6.144-97.28h68.608v-66.56h-136.192l-9.216 76.8h-5.12q-6.144-9.216-18.432-23.552t-32.256-28.16-48.64-24.064-67.584-10.24q-75.776 0-119.808 38.912t-44.032 106.496q0 52.224 23.040 87.040t66.048 53.248 103.936 21.504 136.704-8.192q5.12 47.104 1.536 78.336t-16.384 49.664-35.84 26.112-56.832 7.68q-46.080 0-88.064-12.8t-74.752-26.112zM261.12 294.912q28.672 0 53.248 9.216t43.008 23.552 30.72 31.232 18.432 32.256v71.68q-53.248 9.216-98.304 9.216t-77.824-9.728-51.2-30.208-18.432-53.248q0-33.792 23.040-58.88t77.312-25.088zM210.944 972.8q18.432-36.864 49.152-57.856t65.536-20.992 62.976 20.48 45.568 58.368l43.008-18.432q-3.072-24.576-15.872-48.64t-32.768-42.496-46.592-29.696-57.344-11.264q-28.672 0-54.272 8.704t-46.592 25.6-36.352 39.936-22.528 52.736z" />
<glyph unicode="&#x104;" glyph-name="Aogonek" data-tags="Aogonek" d="M441.344 434.176h-275.456l-65.536-198.656h-83.968l239.616 716.8h100.352l241.664-716.8h-29.696q-21.504-13.312-35.84-30.72-20.48-25.6-20.48-58.368 0-20.48 13.312-36.352t38.912-15.872q19.456 0 40.96 10.24l11.264-44.032q-15.36-12.288-40.96-18.432t-47.104-6.144q-46.080 0-73.728 24.576t-27.648 66.56 27.648 71.68q21.504 22.528 53.248 37.888zM192.512 507.904h225.28l-105.472 336.896h-12.288z" />
<glyph unicode="&#x105;" glyph-name="aogonek" data-tags="aogonek" d="M110.592 707.584q44.032 25.6 99.328 36.864t108.544 11.264q52.224 0 85.504-16.384t52.224-42.496 25.6-59.392 6.656-67.072q0-38.912-2.048-82.944t-3.072-88.064q0-51.2 6.144-97.28h68.608v-66.56h-21.504q-21.504-13.312-35.84-30.72-20.48-25.6-20.48-58.368 0-20.48 13.312-36.352t38.912-15.872q19.456 0 40.96 10.24l11.264-44.032q-15.36-12.288-40.96-18.432t-47.104-6.144q-46.080 0-73.728 24.576t-27.648 66.56 27.648 71.68q20.48 21.504 52.224 36.864h-53.248l-9.216 76.8h-5.12q-6.144-9.216-18.432-23.552t-32.256-28.16-48.64-24.064-67.584-10.24q-75.776 0-119.808 38.912t-44.032 106.496q0 52.224 23.040 87.040t66.048 53.248 103.936 21.504 136.704-8.192q5.12 47.104 1.536 78.336t-16.384 49.664-35.84 26.112-56.832 7.68q-46.080 0-88.064-12.8t-74.752-26.112zM261.12 294.912q28.672 0 53.248 9.216t43.008 23.552 30.72 31.232 18.432 32.256v71.68q-53.248 9.216-98.304 9.216t-77.824-9.728-51.2-30.208-18.432-53.248q0-33.792 23.040-58.88t77.312-25.088z" />
<glyph unicode="&#x106;" glyph-name="Cacute" data-tags="Cacute" d="M468.992 874.496q-17.408 7.168-38.4 10.752t-50.688 3.584q-41.984 0-82.432-15.36t-71.68-50.176-50.176-91.136-18.944-138.24q0-73.728 16.896-129.024t47.104-92.16 72.704-55.296 94.72-18.432q26.624 0 49.664 4.608t42.496 12.8v102.4h75.776v-138.24l1.024-2.048q-30.72-23.552-77.824-39.424t-114.688-15.872q-64.512 0-119.296 22.016t-94.72 67.072-61.952 115.2-22.016 166.4q0 100.352 24.576 170.496t66.56 114.688 97.792 65.024 119.296 20.48q34.816 0 60.416-2.56t45.056-7.168 34.304-11.776 29.184-16.384h1.024v-161.792h-75.776v109.568zM420.864 1126.4h116.736v-21.504l-166.912-99.328h-70.656z" />
<glyph unicode="&#x107;" glyph-name="cacute" data-tags="cacute" d="M449.536 668.672q-23.552 8.192-50.688 13.824t-53.76 5.632q-100.352 0-149.504-47.104t-49.152-149.504q0-45.056 14.336-80.384t40.96-59.904 64-37.888 82.432-13.312q48.128 0 93.696 16.384t76.288 43.008l35.84-59.392q-14.336-12.288-35.84-25.6t-49.664-25.088-62.464-18.944-74.24-7.168q-66.56 0-117.248 18.944t-84.48 54.272-51.2 84.992-17.408 110.080q0 64.512 17.92 114.688t51.712 83.968 81.92 51.712 107.52 17.92q75.776 0 123.392-13.312t80.384-29.696l-1.024-3.072v-142.336h-73.728v97.28zM346.112 972.8h111.616l-121.856-152.576h-56.32z" />
<glyph unicode="&#x108;" glyph-name="Ccircumflex" data-tags="Ccircumflex" d="M468.992 874.496q-17.408 7.168-38.4 10.752t-50.688 3.584q-41.984 0-82.432-15.36t-71.68-50.176-50.176-91.136-18.944-138.24q0-73.728 16.896-129.024t47.104-92.16 72.704-55.296 94.72-18.432q26.624 0 49.664 4.608t42.496 12.8v102.4h75.776v-138.24l1.024-2.048q-30.72-23.552-77.824-39.424t-114.688-15.872q-64.512 0-119.296 22.016t-94.72 67.072-61.952 115.2-22.016 166.4q0 100.352 24.576 170.496t66.56 114.688 97.792 65.024 119.296 20.48q34.816 0 60.416-2.56t45.056-7.168 34.304-11.776 29.184-16.384h1.024v-161.792h-75.776v109.568zM321.536 1127.424h61.44l148.48-125.952h-101.376l-78.848 66.56-84.992-66.56h-103.424z" />
<glyph unicode="&#x109;" glyph-name="ccircumflex" data-tags="ccircumflex" d="M449.536 668.672q-23.552 8.192-50.688 13.824t-53.76 5.632q-100.352 0-149.504-47.104t-49.152-149.504q0-45.056 14.336-80.384t40.96-59.904 64-37.888 82.432-13.312q48.128 0 93.696 16.384t76.288 43.008l35.84-59.392q-14.336-12.288-35.84-25.6t-49.664-25.088-62.464-18.944-74.24-7.168q-66.56 0-117.248 18.944t-84.48 54.272-51.2 84.992-17.408 110.080q0 64.512 17.92 114.688t51.712 83.968 81.92 51.712 107.52 17.92q75.776 0 123.392-13.312t80.384-29.696l-1.024-3.072v-142.336h-73.728v97.28zM283.648 985.088h37.888l138.24-186.368h-79.872l-82.944 111.616-88.064-111.616h-71.68z" />
<glyph unicode="&#x10c;" glyph-name="Ccaron" data-tags="Ccaron" d="M468.992 874.496q-17.408 7.168-38.4 10.752t-50.688 3.584q-41.984 0-82.432-15.36t-71.68-50.176-50.176-91.136-18.944-138.24q0-73.728 16.896-129.024t47.104-92.16 72.704-55.296 94.72-18.432q26.624 0 49.664 4.608t42.496 12.8v102.4h75.776v-138.24l1.024-2.048q-30.72-23.552-77.824-39.424t-114.688-15.872q-64.512 0-119.296 22.016t-94.72 67.072-61.952 115.2-22.016 166.4q0 100.352 24.576 170.496t66.56 114.688 97.792 65.024 119.296 20.48q34.816 0 60.416-2.56t45.056-7.168 34.304-11.776 29.184-16.384h1.024v-161.792h-75.776v109.568zM385.024 999.424h-59.392l-152.576 126.976h106.496l78.848-68.608 82.944 68.608h95.232z" />
<glyph unicode="&#x10d;" glyph-name="ccaron" data-tags="ccaron" d="M449.536 668.672q-23.552 8.192-50.688 13.824t-53.76 5.632q-100.352 0-149.504-47.104t-49.152-149.504q0-45.056 14.336-80.384t40.96-59.904 64-37.888 82.432-13.312q48.128 0 93.696 16.384t76.288 43.008l35.84-59.392q-14.336-12.288-35.84-25.6t-49.664-25.088-62.464-18.944-74.24-7.168q-66.56 0-117.248 18.944t-84.48 54.272-51.2 84.992-17.408 110.080q0 64.512 17.92 114.688t51.712 83.968 81.92 51.712 107.52 17.92q75.776 0 123.392-13.312t80.384-29.696l-1.024-3.072v-142.336h-73.728v97.28zM320.512 798.72h-37.888l-138.24 186.368h79.872l82.944-111.616 88.064 111.616h71.68z" />
<glyph unicode="&#x10e;" glyph-name="Dcaron" data-tags="Dcaron" d="M81.92 952.32q38.912 5.12 81.408 6.656t72.192 1.536q93.184 0 156.16-26.624t101.376-74.24 55.296-114.176 16.896-146.432q0-72.704-15.36-139.776t-53.248-118.784-101.888-82.944-160.256-31.232q-13.312 0-34.816 0.512t-44.032 2.048-43.008 2.56-30.72 3.072v717.824zM239.616 884.736q-14.336 0-36.352-1.024t-36.352-4.096v-573.44q5.12-1.024 14.848-1.536t19.968-1.024 19.968-1.024 15.872-0.512q74.752 0 121.344 24.576t72.192 66.048 34.816 95.232 9.216 111.104q0 50.176-8.192 100.864t-33.28 91.648-71.68 67.072-122.368 26.112zM309.248 999.424h-59.392l-152.576 126.976h106.496l78.848-68.608 82.944 68.608h95.232z" />
<glyph unicode="&#x10f;" glyph-name="dcaron" data-tags="dcaron" d="M357.376 952.32h165.888v-541.696q0-9.216 1.024-23.040t2.56-29.184 3.584-30.208 4.096-26.112h68.608v-66.56h-136.192l-10.24 78.848h-4.096q-22.528-38.912-67.072-65.024t-102.912-26.112q-115.712 0-170.496 65.024t-54.784 202.24q0 64.512 18.432 114.176t52.736 82.944 82.432 50.688 107.52 17.408q21.504 0 38.4-1.024t31.232-3.072 27.136-5.632 28.16-7.68v145.408h-86.016v68.608zM295.936 291.84q62.464 0 98.304 32.256t49.152 96.768v237.568q-22.528 15.36-50.688 22.528t-74.24 7.168q-81.92 0-129.024-47.616t-47.104-150.016q0-41.984 7.68-78.336t25.6-62.976 47.616-41.984 72.704-15.36zM689.152 952.32q-2.048-29.696-12.288-60.928t-23.040-57.856-26.112-47.104-22.528-29.696l-33.792 18.432q17.408 36.864 26.624 83.456t9.216 93.696h81.92z" />
<glyph unicode="&#x110;" glyph-name="Dcroat" data-tags="Dcroat" d="M9.216 636.928h92.16v315.392q38.912 5.12 88.576 6.656t92.672 1.536q86.016 0 145.92-26.624t97.28-74.24 53.76-114.176 16.384-146.432q0-72.704-15.36-139.776t-52.736-118.784-99.84-82.944-155.648-31.232q-16.384 0-40.96 0.512t-50.176 2.048-47.616 2.56-32.256 3.072v340.992h-92.16v61.44zM284.672 884.736q-26.624 0-55.296-1.024t-43.008-4.096v-242.688h140.288v-61.44h-140.288v-269.312q5.12-1.024 17.408-1.536t26.112-1.024 26.624-1.024 17.92-0.512q71.68 0 117.248 24.576t70.656 66.048 34.304 95.232 9.216 111.104q0 50.176-8.192 100.864t-32.256 91.648-67.072 67.072-113.664 26.112z" />
</font>
</defs>
</svg>
